<?xml version="1.0" standalone="no"?>
<!DOCTYPE svg PUBLIC "-//W3C//DTD SVG 1.1//EN" "http://www.w3.org/Graphics/SVG/1.1/DTD/svg11.dtd" >
<svg xmlns="http://www.w3.org/2000/svg" xmlns:xlink="http://www.w3.org/1999/xlink" version="1.1">
<metadata>
Created by FontForge 20200511 at Fri Dec 10 13:52:53 2021
 By convertio
Copyright 2020 The League Spartan Project Authors (https://github.com/theleagueof/league-spartan)
</metadata>
<defs>
<font id="LeagueSpartan-Regular" horiz-adv-x="0" >
  <font-face 
    font-family="League Spartan"
    font-weight="400"
    font-stretch="normal"
    units-per-em="2000"
    panose-1="0 0 0 0 0 0 0 0 0 0"
    ascent="1600"
    descent="-400"
    x-height="821"
    cap-height="1320"
    bbox="-293 -488 2273 2176"
    underline-thickness="50"
    underline-position="-125"
    unicode-range="U+000D-FB02"
  />
<missing-glyph horiz-adv-x="757" 
d="M71 1320l164 -968l452 -352l-164 968zM134 64l131 874l359 318l-131 -874zM621 1320l-386 -968l-99 -352l386 968z" />
    <glyph glyph-name="f_f" unicode="ff" horiz-adv-x="1298" 
d="M28 821h168v233q0 125 43.5 201t111 110.5t138.5 34.5q86 0 132.5 -24t55.5 -32l-70 -133q-5 6 -31 22t-71 16q-33 0 -64 -16t-52 -62t-21 -137v-213h234v-149h-234v-672h-172v672h-168v149zM672 821h168v233q0 125 43.5 201t111 110.5t138.5 34.5q86 0 132.5 -24
t55.5 -32l-70 -133q-5 6 -31 22t-71 16q-33 0 -64 -16t-52 -62t-21 -137v-213h234v-149h-234v-672h-172v672h-168v149z" />
    <glyph glyph-name="f_f_i" unicode="ffi" horiz-adv-x="1757" 
d="M28 821h168v233q0 125 43.5 201t111 110.5t138.5 34.5q86 0 132.5 -24t55.5 -32l-70 -133q-5 6 -31 22t-71 16q-33 0 -64 -16t-52 -62t-21 -137v-213h234v-149h-234v-672h-172v672h-168v149zM672 821h168v233q0 125 43.5 201t111 110.5t138.5 34.5q86 0 132.5 -24
t55.5 -32l-70 -133q-5 6 -31 22t-71 16q-33 0 -64 -16t-52 -62t-21 -137v-213h234v-149h-234v-672h-172v672h-168v149zM1422 0v821h174v-821h-174zM1511 1102q-47 0 -80.5 33.5t-33.5 80.5t33.5 81t80.5 34q31 0 57.5 -16t42.5 -41.5t16 -57.5q0 -47 -34 -80.5t-82 -33.5z
" />
    <glyph glyph-name="f_f_l" unicode="ffl" horiz-adv-x="1729" 
d="M28 821h168v233q0 125 43.5 201t111 110.5t138.5 34.5q86 0 132.5 -24t55.5 -32l-70 -133q-5 6 -31 22t-71 16q-33 0 -64 -16t-52 -62t-21 -137v-213h234v-149h-234v-672h-172v672h-168v149zM672 821h168v233q0 125 43.5 201t111 110.5t138.5 34.5q86 0 132.5 -24
t55.5 -32l-70 -133q-5 6 -31 22t-71 16q-33 0 -64 -16t-52 -62t-21 -137v-213h234v-149h-234v-672h-172v672h-168v149zM1584 0h-175v1376h175v-1376z" />
    <glyph glyph-name="fi" unicode="fi" horiz-adv-x="1113" 
d="M28 821h168v233q0 125 43.5 201t111 110.5t138.5 34.5q86 0 132.5 -24t55.5 -32l-70 -133q-5 6 -31 22t-71 16q-33 0 -64 -16t-52 -62t-21 -137v-213h234v-149h-234v-672h-172v672h-168v149zM778 0v821h174v-821h-174zM867 1102q-47 0 -80.5 33.5t-33.5 80.5t33.5 81
t80.5 34q31 0 57.5 -16t42.5 -41.5t16 -57.5q0 -47 -34 -80.5t-82 -33.5z" />
    <glyph glyph-name="fl" unicode="fl" horiz-adv-x="1085" 
d="M28 821h168v233q0 125 43.5 201t111 110.5t138.5 34.5q86 0 132.5 -24t55.5 -32l-70 -133q-5 6 -31 22t-71 16q-33 0 -64 -16t-52 -62t-21 -137v-213h234v-149h-234v-672h-172v672h-168v149zM940 0h-175v1376h175v-1376z" />
    <glyph glyph-name=".notdef" horiz-adv-x="757" 
d="M71 1320l164 -968l452 -352l-164 968zM134 64l131 874l359 318l-131 -874zM621 1320l-386 -968l-99 -352l386 968z" />
    <glyph glyph-name="A" unicode="A" horiz-adv-x="1208" 
d="M510 1320h178l488 -1320h-183l-114 318h-560l-116 -318h-183zM374 472h451l-224 638h-3z" />
    <glyph glyph-name="Aacute" unicode="&#xc1;" horiz-adv-x="1208" 
d="M510 1320h178l488 -1320h-183l-114 318h-560l-116 -318h-183zM374 472h451l-224 638h-3zM520 1376l-62 83l305 251l98 -124z" />
    <glyph glyph-name="Abreve" unicode="&#x102;" horiz-adv-x="1208" 
d="M510 1320h178l488 -1320h-183l-114 318h-560l-116 -318h-183zM374 472h451l-224 638h-3zM599 1395q-81 0 -140.5 31t-94 79.5t-41.5 103.5l126 32q5 -29 22.5 -61t49.5 -54t78 -22t77.5 22t49 54t22.5 61l126 -32q-5 -52 -39.5 -101.5t-94 -81t-141.5 -31.5z" />
    <glyph glyph-name="uni1EAE" unicode="&#x1eae;" horiz-adv-x="1208" 
d="M510 1320h178l488 -1320h-183l-114 318h-560l-116 -318h-183zM374 472h451l-224 638h-3zM598 1453q-85 0 -149 33t-101.5 85t-43.5 112l137 34q5 -31 23.5 -65t52 -57t81.5 -23q49 0 82 23t52 57t23 65l138 -34q-7 -57 -43.5 -110t-100 -86.5t-151.5 -33.5zM518 1755
l-62 83l305 251l98 -124z" />
    <glyph glyph-name="uni1EB6" unicode="&#x1eb6;" horiz-adv-x="1208" 
d="M510 1320h178l488 -1320h-183l-114 318h-560l-116 -318h-183zM374 472h451l-224 638h-3zM598 -278q-38 0 -65 28t-27 64q0 38 27 66t65 28t65.5 -28t27.5 -66t-27.5 -65t-65.5 -27zM599 1395q-81 0 -140.5 31t-94 79.5t-41.5 103.5l126 32q5 -29 22.5 -61t49.5 -54
t78 -22t77.5 22t49 54t22.5 61l126 -32q-5 -52 -39.5 -101.5t-94 -81t-141.5 -31.5z" />
    <glyph glyph-name="uni1EB0" unicode="&#x1eb0;" horiz-adv-x="1208" 
d="M510 1320h178l488 -1320h-183l-114 318h-560l-116 -318h-183zM374 472h451l-224 638h-3zM680 1768l-341 210l98 124l305 -251zM598 1453q-86 0 -150 33.5t-101 85.5t-43 111l136 34q5 -31 23.5 -65t52 -57t82.5 -23t82 23t51.5 57t22.5 65l139 -34q-7 -58 -44 -111
t-101 -86t-150 -33z" />
    <glyph glyph-name="uni1EB2" unicode="&#x1eb2;" horiz-adv-x="1208" 
d="M510 1320h178l488 -1320h-183l-114 318h-560l-116 -318h-183zM374 472h451l-224 638h-3zM575 1720l-54 80q26 7 65.5 27.5t71 55.5t31.5 84t-20 70.5t-50 27t-61 5.5q-43 0 -92.5 -16t-79.5 -31v105q18 12 67 30t133 18q57 0 108 -17.5t83.5 -60t32.5 -116.5
q0 -59 -24.5 -102.5t-62 -75t-77 -51.5t-71.5 -33zM598 1453q-85 0 -149 33t-101.5 85t-43.5 112l137 34q5 -31 23.5 -65t52 -57t81.5 -23q49 0 82 23t52 57t23 65l138 -34q-7 -57 -43.5 -110t-100 -86.5t-151.5 -33.5z" />
    <glyph glyph-name="uni1EB4" unicode="&#x1eb4;" horiz-adv-x="1208" 
d="M510 1320h178l488 -1320h-183l-114 318h-560l-116 -318h-183zM374 472h451l-224 638h-3zM282 1830q10 46 34.5 94t64 81.5t92.5 33.5q61 0 103 -19t79 -38t82 -19q35 0 53.5 22.5t29.5 53.5h126q-9 -40 -34.5 -89t-65.5 -84.5t-93 -35.5q-61 0 -104 19t-79 38t-76 19
q-33 0 -55.5 -25.5t-30.5 -50.5h-126zM598 1453q-85 0 -149 33t-101.5 85t-43.5 112l137 34q5 -31 23.5 -65t52 -57t81.5 -23q49 0 82 23t52 57t23 65l138 -34q-7 -57 -43.5 -110t-100 -86.5t-151.5 -33.5z" />
    <glyph glyph-name="Acircumflex" unicode="&#xc2;" horiz-adv-x="1208" 
d="M510 1320h178l488 -1320h-183l-114 318h-560l-116 -318h-183zM374 472h451l-224 638h-3zM375 1404l-76 101l299 219l300 -220l-76 -102l-224 165z" />
    <glyph glyph-name="uni1EA4" unicode="&#x1ea4;" horiz-adv-x="1208" 
d="M510 1320h178l488 -1320h-183l-114 318h-560l-116 -318h-183zM374 472h451l-224 638h-3zM823 1408l-224 164l-223 -163l-76 102l299 219l300 -220zM815 1672l-61 83l304 251l99 -124z" />
    <glyph glyph-name="uni1EAC" unicode="&#x1eac;" horiz-adv-x="1208" 
d="M510 1320h178l488 -1320h-183l-114 318h-560l-116 -318h-183zM374 472h451l-224 638h-3zM598 -278q-38 0 -65 28t-27 64q0 38 27 66t65 28t65.5 -28t27.5 -66t-27.5 -65t-65.5 -27zM375 1404l-76 101l299 219l300 -220l-76 -102l-224 165z" />
    <glyph glyph-name="uni1EA6" unicode="&#x1ea6;" horiz-adv-x="1208" 
d="M510 1320h178l488 -1320h-183l-114 318h-560l-116 -318h-183zM374 472h451l-224 638h-3zM826 1410l-224 164l-223 -163l-76 101l299 219l300 -219zM975 1646l-341 210l98 124l305 -251z" />
    <glyph glyph-name="uni1EA8" unicode="&#x1ea8;" horiz-adv-x="1208" 
d="M510 1320h178l488 -1320h-183l-114 318h-560l-116 -318h-183zM374 472h451l-224 638h-3zM788 1664l-54 80q26 6 65.5 27t71 56t31.5 83q0 49 -20 70.5t-50 27.5t-61 6q-43 0 -92.5 -16.5t-79.5 -31.5v105q18 12 67 30t133 18q57 0 108 -17.5t83.5 -59.5t32.5 -117
q0 -58 -24.5 -102t-62 -75.5t-77 -51.5t-71.5 -32zM824 1408l-224 164l-223 -163l-76 102l299 219l300 -220z" />
    <glyph glyph-name="uni1EAA" unicode="&#x1eaa;" horiz-adv-x="1208" 
d="M510 1320h178l488 -1320h-183l-114 318h-560l-116 -318h-183zM374 472h451l-224 638h-3zM273 1770q10 45 34.5 93t64 82t92.5 34q61 0 103 -19t79 -38t82 -19q35 0 56 26t27 50h126q-10 -45 -35.5 -93.5t-65 -82t-92.5 -33.5q-61 0 -104 19t-79 37.5t-76 18.5
q-33 0 -55.5 -25.5t-30.5 -49.5h-126zM820 1408l-224 164l-223 -163l-76 102l299 219l300 -220z" />
    <glyph glyph-name="uni0200" unicode="&#x200;" horiz-adv-x="1208" 
d="M510 1320h178l488 -1320h-183l-114 318h-560l-116 -318h-183zM374 472h451l-224 638h-3zM850 1373l-341 210l98 124l306 -251zM478 1373l-341 210l98 124l305 -251z" />
    <glyph glyph-name="Adieresis" unicode="&#xc4;" horiz-adv-x="1208" 
d="M510 1320h178l488 -1320h-183l-114 318h-560l-116 -318h-183zM374 472h451l-224 638h-3zM793 1410q-44 0 -75.5 32t-31.5 75t31.5 75.5t75.5 32.5q43 0 75 -32t32 -76t-32 -75.5t-75 -31.5zM403 1410q-44 0 -75 32t-31 75t31 75.5t75 32.5t75.5 -32t31.5 -76t-31.5 -75.5
t-75.5 -31.5z" />
    <glyph glyph-name="uni1EA0" unicode="&#x1ea0;" horiz-adv-x="1208" 
d="M510 1320h178l488 -1320h-183l-114 318h-560l-116 -318h-183zM374 472h451l-224 638h-3zM598 -278q-38 0 -65 28t-27 64q0 38 27 66t65 28t65.5 -28t27.5 -66t-27.5 -65t-65.5 -27z" />
    <glyph glyph-name="Agrave" unicode="&#xc0;" horiz-adv-x="1208" 
d="M510 1320h178l488 -1320h-183l-114 318h-560l-116 -318h-183zM374 472h451l-224 638h-3zM658 1376l-341 210l98 124l306 -251z" />
    <glyph glyph-name="uni1EA2" unicode="&#x1ea2;" horiz-adv-x="1208" 
d="M510 1320h178l488 -1320h-183l-114 318h-560l-116 -318h-183zM374 472h451l-224 638h-3zM575 1396l-54 73q26 6 65.5 23.5t71 47t31.5 69.5q0 44 -20 63.5t-50 25t-61 5.5q-43 0 -92.5 -15.5t-79.5 -30.5v95q18 12 67 29t133 17q57 0 108 -16t83.5 -54.5t32.5 -104.5
q0 -51 -24.5 -88t-62 -64t-77 -45t-71.5 -30z" />
    <glyph glyph-name="uni0202" unicode="&#x202;" horiz-adv-x="1208" 
d="M510 1320h178l488 -1320h-183l-114 318h-560l-116 -318h-183zM374 472h451l-224 638h-3zM450 1400l-126 31q6 52 40 101.5t93.5 81t140.5 31.5t140 -31t94 -79.5t41 -103.5l-126 -31q-4 29 -22 60.5t-49.5 53.5t-77.5 22t-77.5 -22t-48.5 -53.5t-22 -60.5z" />
    <glyph glyph-name="Amacron" unicode="&#x100;" horiz-adv-x="1208" 
d="M510 1320h178l488 -1320h-183l-114 318h-560l-116 -318h-183zM374 472h451l-224 638h-3zM305 1457v122h587v-122h-587z" />
    <glyph glyph-name="Aogonek" unicode="&#x104;" horiz-adv-x="1218" 
d="M510 1320h178l488 -1320h-183l-114 318h-560l-116 -318h-183zM374 472h451l-224 638h-3zM1022 -427q-42 0 -87.5 15t-77 53.5t-31.5 107.5q0 50 28.5 104.5t70 104t79.5 83.5l64 -41q-27 -27 -57 -66.5t-51 -83.5t-21 -84q0 -53 31.5 -72.5t73.5 -19.5q39 0 70 20.5
t46 42.5l81 -62q-23 -38 -85 -70t-134 -32z" />
    <glyph glyph-name="Aring" unicode="&#xc5;" horiz-adv-x="1208" 
d="M510 1320h178l488 -1320h-183l-114 318h-560l-116 -318h-183zM374 472h451l-224 638h-3zM599 1371q-86 0 -139 48t-53 123q0 74 56 122.5t136 48.5q81 0 136 -48.5t55 -122.5q0 -75 -53.5 -123t-137.5 -48zM599 1457q35 0 58.5 22.5t23.5 62.5t-24 62t-58 22
q-33 0 -58 -22t-25 -62t25 -62.5t58 -22.5z" />
    <glyph glyph-name="Aringacute" unicode="&#x1fa;" horiz-adv-x="1208" 
d="M510 1320h178l488 -1320h-183l-114 318h-560l-116 -318h-183zM374 472h451l-224 638h-3zM599 1371q-86 0 -139 48t-53 123q0 74 56 122.5t136 48.5q81 0 136 -48.5t55 -122.5q0 -75 -53.5 -123t-137.5 -48zM599 1457q35 0 58.5 22.5t23.5 62.5t-24 62t-58 22
q-33 0 -58 -22t-25 -62t25 -62.5t58 -22.5zM520 1769l-62 83l305 251l98 -124z" />
    <glyph glyph-name="Atilde" unicode="&#xc3;" horiz-adv-x="1208" 
d="M510 1320h178l488 -1320h-183l-114 318h-560l-116 -318h-183zM374 472h451l-224 638h-3zM266 1412q10 46 34.5 94t64 81.5t92.5 33.5q61 0 103 -19t79 -38t82 -19q35 0 56 26t27 50h126q-10 -44 -35.5 -92.5t-65 -82.5t-92.5 -34q-61 0 -104 19t-79 38t-76 19
q-33 0 -55.5 -25.5t-30.5 -50.5h-126z" />
    <glyph glyph-name="AE" unicode="&#xc6;" horiz-adv-x="1656" 
d="M737 1320h186l-19 -1002h-536l-176 -318h-185zM435 456h374v645l-3 10zM796 1320h781v-155h-611v-428h598v-151h-598v-431h611v-155h-781v1320z" />
    <glyph glyph-name="AEacute" unicode="&#x1fc;" horiz-adv-x="1656" 
d="M737 1320h186l-19 -1002h-536l-176 -318h-185zM435 456h374v645l-3 10zM796 1320h781v-155h-611v-428h598v-151h-598v-431h611v-155h-781v1320zM1057 1433l-61 83l303 251l100 -124z" />
    <glyph glyph-name="B" unicode="B" horiz-adv-x="1065" 
d="M110 1320h367q108 0 203 -29t154 -98t59 -192q0 -83 -32.5 -150.5t-80.5 -109.5t-95 -50q38 -3 84.5 -24t89 -60t70 -97.5t27.5 -138.5q0 -108 -44 -192t-133.5 -131.5t-226.5 -47.5h-442v1320zM280 143h255q95 0 147.5 33.5t74 87.5t21.5 115q0 101 -66 163t-191 62
h-241v-461zM280 744h221q76 0 125 33.5t73 86t24 108.5q0 115 -67.5 160t-180.5 45h-195v-433z" />
    <glyph glyph-name="C" unicode="C" horiz-adv-x="1263" 
d="M751 145q123 0 213.5 34t128.5 66l75 -147q-45 -40 -156.5 -81t-267.5 -41q-146 0 -271 52t-218.5 145t-146 217t-52.5 268t52 269t145.5 218.5t219 146t271.5 52.5q156 0 267.5 -41t156.5 -81l-75 -147q-38 33 -128.5 66.5t-213.5 33.5q-112 0 -205 -38t-161.5 -107.5
t-106 -163.5t-37.5 -205q0 -112 37.5 -206.5t106 -164t161.5 -107.5t205 -38z" />
    <glyph glyph-name="Cacute" unicode="&#x106;" horiz-adv-x="1263" 
d="M751 145q123 0 213.5 34t128.5 66l75 -147q-45 -40 -156.5 -81t-267.5 -41q-146 0 -271 52t-218.5 145t-146 217t-52.5 268t52 269t145.5 218.5t219 146t271.5 52.5q156 0 267.5 -41t156.5 -81l-75 -147q-38 33 -128.5 66.5t-213.5 33.5q-112 0 -205 -38t-161.5 -107.5
t-106 -163.5t-37.5 -205q0 -112 37.5 -206.5t106 -164t161.5 -107.5t205 -38zM641 1376l-62 83l305 251l98 -124z" />
    <glyph glyph-name="Ccaron" unicode="&#x10c;" horiz-adv-x="1263" 
d="M751 145q123 0 213.5 34t128.5 66l75 -147q-45 -40 -156.5 -81t-267.5 -41q-146 0 -271 52t-218.5 145t-146 217t-52.5 268t52 269t145.5 218.5t219 146t271.5 52.5q156 0 267.5 -41t156.5 -81l-75 -147q-38 33 -128.5 66.5t-213.5 33.5q-112 0 -205 -38t-161.5 -107.5
t-106 -163.5t-37.5 -205q0 -112 37.5 -206.5t106 -164t161.5 -107.5t205 -38zM720 1416l-261 191l67 89l194 -141l196 142l65 -89z" />
    <glyph glyph-name="Ccedilla" unicode="&#xc7;" horiz-adv-x="1263" 
d="M751 145q123 0 213.5 34t128.5 66l75 -147q-45 -40 -156.5 -81t-267.5 -41q-146 0 -271 52t-218.5 145t-146 217t-52.5 268t52 269t145.5 218.5t219 146t271.5 52.5q156 0 267.5 -41t156.5 -81l-75 -147q-38 33 -128.5 66.5t-213.5 33.5q-112 0 -205 -38t-161.5 -107.5
t-106 -163.5t-37.5 -205q0 -112 37.5 -206.5t106 -164t161.5 -107.5t205 -38zM747 -425q-73 0 -130.5 22.5t-82.5 43.5l69 81q19 -17 55.5 -34.5t77.5 -17.5q48 0 80.5 21.5t32.5 56.5q0 38 -27.5 56t-69.5 18q-31 0 -56 -4.5t-36 -9.5l-29 17l77 217l78 -32l-46 -128
q48 10 101 0.5t90 -41t37 -86.5q0 -59 -32.5 -99t-83 -60.5t-105.5 -20.5z" />
    <glyph glyph-name="Ccircumflex" unicode="&#x108;" horiz-adv-x="1263" 
d="M751 145q123 0 213.5 34t128.5 66l75 -147q-45 -40 -156.5 -81t-267.5 -41q-146 0 -271 52t-218.5 145t-146 217t-52.5 268t52 269t145.5 218.5t219 146t271.5 52.5q156 0 267.5 -41t156.5 -81l-75 -147q-38 33 -128.5 66.5t-213.5 33.5q-112 0 -205 -38t-161.5 -107.5
t-106 -163.5t-37.5 -205q0 -112 37.5 -206.5t106 -164t161.5 -107.5t205 -38zM496 1404l-76 101l299 219l300 -220l-76 -102l-224 165z" />
    <glyph glyph-name="Cdotaccent" unicode="&#x10a;" horiz-adv-x="1263" 
d="M751 145q123 0 213.5 34t128.5 66l75 -147q-45 -40 -156.5 -81t-267.5 -41q-146 0 -271 52t-218.5 145t-146 217t-52.5 268t52 269t145.5 218.5t219 146t271.5 52.5q156 0 267.5 -41t156.5 -81l-75 -147q-38 33 -128.5 66.5t-213.5 33.5q-112 0 -205 -38t-161.5 -107.5
t-106 -163.5t-37.5 -205q0 -112 37.5 -206.5t106 -164t161.5 -107.5t205 -38zM719 1439q-44 0 -75 32t-31 75t31 75t75 32t75.5 -31.5t31.5 -75.5t-31.5 -75.5t-75.5 -31.5z" />
    <glyph glyph-name="D" unicode="D" horiz-adv-x="1140" 
d="M106 1320h311q211 0 347.5 -84.5t202.5 -233.5t66 -341q0 -193 -66 -342t-202 -234t-348 -85h-311v1320zM276 1164v-1008h127q156 0 255 65t146.5 178.5t48.5 259.5q0 147 -47 260.5t-147 179t-256 65.5h-127z" />
    <glyph glyph-name="uni01C4" unicode="&#x1c4;" horiz-adv-x="2317" 
d="M106 1320h311q211 0 347.5 -84.5t202.5 -233.5t66 -341q0 -193 -66 -342t-202 -234t-348 -85h-311v1320zM276 1164v-1008h127q156 0 255 65t146.5 178.5t48.5 259.5q0 147 -47 260.5t-147 179t-256 65.5h-127zM1272 1320h955l-742 -1165h699v-155h-1005l745 1165h-652
v155zM1720 1460l-299 219l76 102l223 -162l224 163l76 -102z" />
    <glyph glyph-name="Eth" unicode="&#xd0;" horiz-adv-x="1140" 
d="M106 0v1320h311q211 0 347.5 -84.5t202.5 -233.5t66 -341q0 -193 -66 -342t-202 -234t-348 -85h-311zM-15 582v151h549v-151h-549zM276 156h127q156 0 255 65t146.5 178.5t48.5 259.5q0 147 -47 260.5t-147 179t-256 65.5h-127v-1008z" />
    <glyph glyph-name="Dcaron" unicode="&#x10e;" horiz-adv-x="1140" 
d="M106 1320h311q211 0 347.5 -84.5t202.5 -233.5t66 -341q0 -193 -66 -342t-202 -234t-348 -85h-311v1320zM276 1164v-1008h127q156 0 255 65t146.5 178.5t48.5 259.5q0 147 -47 260.5t-147 179t-256 65.5h-127zM540 1416l-261 191l67 89l194 -141l196 142l65 -89z" />
    <glyph glyph-name="Dcroat" unicode="&#x110;" horiz-adv-x="1140" 
d="M106 0v1320h311q211 0 347.5 -84.5t202.5 -233.5t66 -341q0 -193 -66 -342t-202 -234t-348 -85h-311zM-15 582v151h549v-151h-549zM276 156h127q156 0 255 65t146.5 178.5t48.5 259.5q0 147 -47 260.5t-147 179t-256 65.5h-127v-1008z" />
    <glyph glyph-name="uni01C5" unicode="&#x1c5;" horiz-adv-x="1982" 
d="M106 1320h311q211 0 347.5 -84.5t202.5 -233.5t66 -341q0 -193 -66 -342t-202 -234t-348 -85h-311v1320zM276 1164v-1008h127q156 0 255 65t146.5 178.5t48.5 259.5q0 147 -47 260.5t-147 179t-256 65.5h-127zM1213 821h716l-491 -689h471v-132h-752l491 690h-435v131z
M1561 961l-299 219l76 102l223 -162l224 163l76 -102z" />
    <glyph glyph-name="E" unicode="E" horiz-adv-x="1051" 
d="M111 1320h780v-155h-611v-428h599v-151h-599v-431h611v-155h-780v1320z" />
    <glyph glyph-name="Eacute" unicode="&#xc9;" horiz-adv-x="1051" 
d="M111 1320h780v-155h-611v-428h599v-151h-599v-431h611v-155h-780v1320zM416 1376l-62 83l305 251l98 -124z" />
    <glyph glyph-name="Ebreve" unicode="&#x114;" horiz-adv-x="1051" 
d="M111 1320h780v-155h-611v-428h599v-151h-599v-431h611v-155h-780v1320zM495 1395q-81 0 -140.5 31t-94 79.5t-41.5 103.5l126 32q5 -29 22.5 -61t49.5 -54t78 -22t77.5 22t49 54t22.5 61l126 -32q-5 -52 -39.5 -101.5t-94 -81t-141.5 -31.5z" />
    <glyph glyph-name="Ecaron" unicode="&#x11a;" horiz-adv-x="1051" 
d="M111 1320h780v-155h-611v-428h599v-151h-599v-431h611v-155h-780v1320zM495 1416l-261 191l67 89l194 -141l196 142l65 -89z" />
    <glyph glyph-name="Ecircumflex" unicode="&#xca;" horiz-adv-x="1051" 
d="M111 1320h780v-155h-611v-428h599v-151h-599v-431h611v-155h-780v1320zM271 1404l-76 101l299 219l300 -220l-76 -102l-224 165z" />
    <glyph glyph-name="uni1EBE" unicode="&#x1ebe;" horiz-adv-x="1051" 
d="M111 1320h780v-155h-611v-428h599v-151h-599v-431h611v-155h-780v1320zM720 1408l-224 164l-223 -163l-76 102l299 219l300 -220zM712 1672l-61 83l304 251l99 -124z" />
    <glyph glyph-name="uni1EC6" unicode="&#x1ec6;" horiz-adv-x="1051" 
d="M111 1320h780v-155h-611v-428h599v-151h-599v-431h611v-155h-780v1320zM489 -278q-38 0 -65 28t-27 64q0 38 27 66t65 28t65.5 -28t27.5 -66t-27.5 -65t-65.5 -27zM271 1404l-76 101l299 219l300 -220l-76 -102l-224 165z" />
    <glyph glyph-name="uni1EC0" unicode="&#x1ec0;" horiz-adv-x="1051" 
d="M111 1320h780v-155h-611v-428h599v-151h-599v-431h611v-155h-780v1320zM723 1410l-224 164l-223 -163l-76 101l299 219l300 -219zM872 1646l-341 210l98 124l305 -251z" />
    <glyph glyph-name="uni1EC2" unicode="&#x1ec2;" horiz-adv-x="1051" 
d="M111 1320h780v-155h-611v-428h599v-151h-599v-431h611v-155h-780v1320zM685 1664l-54 80q26 6 65.5 27t71 56t31.5 83q0 49 -20 70.5t-50 27.5t-61 6q-43 0 -92.5 -16.5t-79.5 -31.5v105q18 12 67 30t133 18q57 0 108 -17.5t83.5 -59.5t32.5 -117q0 -58 -24.5 -102
t-62 -75.5t-77 -51.5t-71.5 -32zM721 1408l-224 164l-223 -163l-76 102l299 219l300 -220z" />
    <glyph glyph-name="uni1EC4" unicode="&#x1ec4;" horiz-adv-x="1051" 
d="M111 1320h780v-155h-611v-428h599v-151h-599v-431h611v-155h-780v1320zM169 1770q10 45 34.5 93t64 82t92.5 34q61 0 103 -19t79 -38t82 -19q35 0 56 26t27 50h126q-10 -45 -35.5 -93.5t-65 -82t-92.5 -33.5q-61 0 -104 19t-79 37.5t-76 18.5q-33 0 -55.5 -25.5
t-30.5 -49.5h-126zM716 1408l-224 164l-223 -163l-76 102l299 219l300 -220z" />
    <glyph glyph-name="uni0204" unicode="&#x204;" horiz-adv-x="1051" 
d="M111 1320h780v-155h-611v-428h599v-151h-599v-431h611v-155h-780v1320zM747 1373l-341 210l98 124l306 -251zM375 1373l-341 210l98 124l305 -251z" />
    <glyph glyph-name="Edieresis" unicode="&#xcb;" horiz-adv-x="1051" 
d="M111 1320h780v-155h-611v-428h599v-151h-599v-431h611v-155h-780v1320zM690 1410q-44 0 -75.5 32t-31.5 75t31.5 75.5t75.5 32.5q43 0 75 -32t32 -76t-32 -75.5t-75 -31.5zM300 1410q-44 0 -75 32t-31 75t31 75.5t75 32.5t75.5 -32t31.5 -76t-31.5 -75.5t-75.5 -31.5z
" />
    <glyph glyph-name="Edotaccent" unicode="&#x116;" horiz-adv-x="1051" 
d="M111 1320h780v-155h-611v-428h599v-151h-599v-431h611v-155h-780v1320zM494 1439q-44 0 -75 32t-31 75t31 75t75 32t75.5 -31.5t31.5 -75.5t-31.5 -75.5t-75.5 -31.5z" />
    <glyph glyph-name="uni1EB8" unicode="&#x1eb8;" horiz-adv-x="1051" 
d="M111 1320h780v-155h-611v-428h599v-151h-599v-431h611v-155h-780v1320zM489 -278q-38 0 -65 28t-27 64q0 38 27 66t65 28t65.5 -28t27.5 -66t-27.5 -65t-65.5 -27z" />
    <glyph glyph-name="Egrave" unicode="&#xc8;" horiz-adv-x="1051" 
d="M111 1320h780v-155h-611v-428h599v-151h-599v-431h611v-155h-780v1320zM555 1376l-341 210l98 124l306 -251z" />
    <glyph glyph-name="uni1EBA" unicode="&#x1eba;" horiz-adv-x="1051" 
d="M111 1320h780v-155h-611v-428h599v-151h-599v-431h611v-155h-780v1320zM472 1396l-54 73q26 6 65.5 23.5t71 47t31.5 69.5q0 44 -20 63.5t-50 25t-61 5.5q-43 0 -92.5 -15.5t-79.5 -30.5v95q18 12 67 29t133 17q57 0 108 -16t83.5 -54.5t32.5 -104.5q0 -51 -24.5 -88
t-62 -64t-77 -45t-71.5 -30z" />
    <glyph glyph-name="uni0206" unicode="&#x206;" horiz-adv-x="1051" 
d="M111 1320h780v-155h-611v-428h599v-151h-599v-431h611v-155h-780v1320zM347 1400l-126 31q6 52 40 101.5t93.5 81t140.5 31.5t140 -31t94 -79.5t41 -103.5l-126 -31q-4 29 -22 60.5t-49.5 53.5t-77.5 22t-77.5 -22t-48.5 -53.5t-22 -60.5z" />
    <glyph glyph-name="Emacron" unicode="&#x112;" horiz-adv-x="1051" 
d="M111 1320h780v-155h-611v-428h599v-151h-599v-431h611v-155h-780v1320zM201 1457v122h587v-122h-587z" />
    <glyph glyph-name="Eogonek" unicode="&#x118;" horiz-adv-x="1051" 
d="M111 1320h780v-155h-611v-428h599v-151h-599v-431h611v-155h-780v1320zM632 -426q-42 0 -87.5 15t-77 53.5t-31.5 107.5q0 50 28.5 104.5t70 104t79.5 83.5l64 -41q-27 -27 -57 -66.5t-51 -84t-21 -85.5q0 -50 32 -70t72 -20t71 20.5t46 42.5l81 -62q-23 -38 -85 -70
t-134 -32z" />
    <glyph glyph-name="uni1EBC" unicode="&#x1ebc;" horiz-adv-x="1051" 
d="M111 1320h780v-155h-611v-428h599v-151h-599v-431h611v-155h-780v1320zM163 1412q10 46 34.5 94t64 81.5t92.5 33.5q61 0 103 -19t79 -38t82 -19q35 0 56 26t27 50h126q-10 -44 -35.5 -92.5t-65 -82.5t-92.5 -34q-61 0 -104 19t-79 38t-76 19q-33 0 -55.5 -25.5
t-30.5 -50.5h-126z" />
    <glyph glyph-name="F" unicode="F" horiz-adv-x="910" 
d="M110 1320h688v-155h-518v-426h483v-154h-483v-585h-170v1320z" />
    <glyph glyph-name="G" unicode="G" horiz-adv-x="1438" 
d="M683 717h666v-72q0 -138 -48 -259.5t-135.5 -213.5t-205.5 -144t-259 -52q-144 0 -264 53.5t-208 148t-136 218.5t-48 265q0 140 48 264t136 218t208 147.5t264 53.5q98 0 179.5 -21.5t147 -60t116.5 -87t88 -102.5l-155 -83q-60 83 -154 137t-222 54q-104 0 -192 -41
t-152.5 -113t-99.5 -166t-35 -200t35 -200.5t99.5 -167t152.5 -113.5t192 -41q99 0 181 34t143 94t96 140t39 172h-477v138z" />
    <glyph glyph-name="Gbreve" unicode="&#x11e;" horiz-adv-x="1438" 
d="M683 717h666v-72q0 -138 -48 -259.5t-135.5 -213.5t-205.5 -144t-259 -52q-144 0 -264 53.5t-208 148t-136 218.5t-48 265q0 140 48 264t136 218t208 147.5t264 53.5q98 0 179.5 -21.5t147 -60t116.5 -87t88 -102.5l-155 -83q-60 83 -154 137t-222 54q-104 0 -192 -41
t-152.5 -113t-99.5 -166t-35 -200t35 -200.5t99.5 -167t152.5 -113.5t192 -41q99 0 181 34t143 94t96 140t39 172h-477v138zM702 1395q-81 0 -140.5 31t-94 79.5t-41.5 103.5l126 32q5 -29 22.5 -61t49.5 -54t78 -22t77.5 22t49 54t22.5 61l126 -32q-5 -52 -39.5 -101.5
t-94 -81t-141.5 -31.5z" />
    <glyph glyph-name="Gcaron" unicode="&#x1e6;" horiz-adv-x="1438" 
d="M683 717h666v-72q0 -138 -48 -259.5t-135.5 -213.5t-205.5 -144t-259 -52q-144 0 -264 53.5t-208 148t-136 218.5t-48 265q0 140 48 264t136 218t208 147.5t264 53.5q98 0 179.5 -21.5t147 -60t116.5 -87t88 -102.5l-155 -83q-60 83 -154 137t-222 54q-104 0 -192 -41
t-152.5 -113t-99.5 -166t-35 -200t35 -200.5t99.5 -167t152.5 -113.5t192 -41q99 0 181 34t143 94t96 140t39 172h-477v138zM702 1416l-261 191l67 89l194 -141l196 142l65 -89z" />
    <glyph glyph-name="Gcircumflex" unicode="&#x11c;" horiz-adv-x="1438" 
d="M683 717h666v-72q0 -138 -48 -259.5t-135.5 -213.5t-205.5 -144t-259 -52q-144 0 -264 53.5t-208 148t-136 218.5t-48 265q0 140 48 264t136 218t208 147.5t264 53.5q98 0 179.5 -21.5t147 -60t116.5 -87t88 -102.5l-155 -83q-60 83 -154 137t-222 54q-104 0 -192 -41
t-152.5 -113t-99.5 -166t-35 -200t35 -200.5t99.5 -167t152.5 -113.5t192 -41q99 0 181 34t143 94t96 140t39 172h-477v138zM478 1404l-76 101l299 219l300 -220l-76 -102l-224 165z" />
    <glyph glyph-name="uni0122" unicode="&#x122;" horiz-adv-x="1438" 
d="M683 717h666v-72q0 -138 -48 -259.5t-135.5 -213.5t-205.5 -144t-259 -52q-144 0 -264 53.5t-208 148t-136 218.5t-48 265q0 140 48 264t136 218t208 147.5t264 53.5q98 0 179.5 -21.5t147 -60t116.5 -87t88 -102.5l-155 -83q-60 83 -154 137t-222 54q-104 0 -192 -41
t-152.5 -113t-99.5 -166t-35 -200t35 -200.5t99.5 -167t152.5 -113.5t192 -41q99 0 181 34t143 94t96 140t39 172h-477v138zM670 -488l-52 53q36 18 78 54.5t53 81.5q-16 -8 -40 -8q-40 0 -69.5 30t-29.5 74q0 50 33 81.5t80 31.5q48 0 82.5 -33.5t34.5 -92.5
q0 -58 -23.5 -111t-62.5 -94.5t-84 -66.5z" />
    <glyph glyph-name="Gdotaccent" unicode="&#x120;" horiz-adv-x="1438" 
d="M683 717h666v-72q0 -138 -48 -259.5t-135.5 -213.5t-205.5 -144t-259 -52q-144 0 -264 53.5t-208 148t-136 218.5t-48 265q0 140 48 264t136 218t208 147.5t264 53.5q98 0 179.5 -21.5t147 -60t116.5 -87t88 -102.5l-155 -83q-60 83 -154 137t-222 54q-104 0 -192 -41
t-152.5 -113t-99.5 -166t-35 -200t35 -200.5t99.5 -167t152.5 -113.5t192 -41q99 0 181 34t143 94t96 140t39 172h-477v138zM701 1439q-44 0 -75 32t-31 75t31 75t75 32t75.5 -31.5t31.5 -75.5t-31.5 -75.5t-75.5 -31.5z" />
    <glyph glyph-name="H" unicode="H" horiz-adv-x="1241" 
d="M913 585h-633v-585h-169v1320h169v-581h633v581h169v-1320h-169v585z" />
    <glyph glyph-name="Hbar" unicode="&#x126;" horiz-adv-x="1241" 
d="M41 1111h1110v-122h-1110v122zM913 585h-633v-585h-169v1320h169v-581h633v581h169v-1320h-169v585z" />
    <glyph glyph-name="Hcircumflex" unicode="&#x124;" horiz-adv-x="1241" 
d="M913 585h-633v-585h-169v1320h169v-581h633v581h169v-1320h-169v585zM373 1404l-76 101l299 219l300 -220l-76 -102l-224 165z" />
    <glyph glyph-name="I" unicode="I" horiz-adv-x="467" 
d="M125 1320h172v-1320h-172v1320z" />
    <glyph glyph-name="Iacute" unicode="&#xcd;" horiz-adv-x="467" 
d="M125 1320h172v-1320h-172v1320zM131 1376l-62 83l305 251l98 -124z" />
    <glyph glyph-name="Ibreve" unicode="&#x12c;" horiz-adv-x="467" 
d="M125 1320h172v-1320h-172v1320zM210 1395q-81 0 -140.5 31t-94 79.5t-41.5 103.5l126 32q5 -29 22.5 -61t49.5 -54t78 -22t77.5 22t49 54t22.5 61l126 -32q-5 -52 -39.5 -101.5t-94 -81t-141.5 -31.5z" />
    <glyph glyph-name="Icircumflex" unicode="&#xce;" horiz-adv-x="467" 
d="M125 1320h172v-1320h-172v1320zM-14 1404l-76 101l299 219l300 -220l-76 -102l-224 165z" />
    <glyph glyph-name="uni0208" unicode="&#x208;" horiz-adv-x="467" 
d="M125 1320h172v-1320h-172v1320zM462 1373l-341 210l98 124l306 -251zM90 1373l-341 210l98 124l305 -251z" />
    <glyph glyph-name="Idieresis" unicode="&#xcf;" horiz-adv-x="467" 
d="M125 1320h172v-1320h-172v1320zM405 1410q-44 0 -75.5 32t-31.5 75t31.5 75.5t75.5 32.5q43 0 75 -32t32 -76t-32 -75.5t-75 -31.5zM15 1410q-44 0 -75 32t-31 75t31 75.5t75 32.5t75.5 -32t31.5 -76t-31.5 -75.5t-75.5 -31.5z" />
    <glyph glyph-name="Idotaccent" unicode="&#x130;" horiz-adv-x="467" 
d="M125 1320h172v-1320h-172v1320zM209 1439q-44 0 -75 32t-31 75t31 75t75 32t75.5 -31.5t31.5 -75.5t-31.5 -75.5t-75.5 -31.5z" />
    <glyph glyph-name="uni1ECA" unicode="&#x1eca;" horiz-adv-x="467" 
d="M125 1320h172v-1320h-172v1320zM208 -278q-38 0 -65 28t-27 64q0 38 27 66t65 28t65.5 -28t27.5 -66t-27.5 -65t-65.5 -27z" />
    <glyph glyph-name="Igrave" unicode="&#xcc;" horiz-adv-x="467" 
d="M125 1320h172v-1320h-172v1320zM270 1376l-341 210l98 124l306 -251z" />
    <glyph glyph-name="uni1EC8" unicode="&#x1ec8;" horiz-adv-x="467" 
d="M125 1320h172v-1320h-172v1320zM187 1396l-54 73q26 6 65.5 23.5t71 47t31.5 69.5q0 44 -20 63.5t-50 25t-61 5.5q-43 0 -92.5 -15.5t-79.5 -30.5v95q18 12 67 29t133 17q57 0 108 -16t83.5 -54.5t32.5 -104.5q0 -51 -24.5 -88t-62 -64t-77 -45t-71.5 -30z" />
    <glyph glyph-name="uni020A" unicode="&#x20a;" horiz-adv-x="467" 
d="M125 1320h172v-1320h-172v1320zM62 1400l-126 31q6 52 40 101.5t93.5 81t140.5 31.5t140 -31t94 -79.5t41 -103.5l-126 -31q-4 29 -22 60.5t-49.5 53.5t-77.5 22t-77.5 -22t-48.5 -53.5t-22 -60.5z" />
    <glyph glyph-name="Imacron" unicode="&#x12a;" horiz-adv-x="467" 
d="M125 1320h172v-1320h-172v1320zM-84 1457v122h587v-122h-587z" />
    <glyph glyph-name="Iogonek" unicode="&#x12e;" horiz-adv-x="467" 
d="M125 1320h172v-1320h-172v1320zM206 -427q-42 0 -87.5 15t-77 53.5t-31.5 107.5q0 50 28.5 104.5t70 104t79.5 83.5l64 -41q-27 -27 -57 -66.5t-51 -83.5t-21 -84q0 -53 31.5 -72.5t73.5 -19.5q39 0 70 20.5t46 42.5l81 -62q-23 -38 -85 -70t-134 -32z" />
    <glyph glyph-name="Itilde" unicode="&#x128;" horiz-adv-x="467" 
d="M125 1320h172v-1320h-172v1320zM-122 1412q10 46 34.5 94t64 81.5t92.5 33.5q61 0 103 -19t79 -38t82 -19q35 0 56 26t27 50h126q-10 -44 -35.5 -92.5t-65 -82.5t-92.5 -34q-61 0 -104 19t-79 38t-76 19q-33 0 -55.5 -25.5t-30.5 -50.5h-126z" />
    <glyph glyph-name="J" unicode="J" horiz-adv-x="778" 
d="M653 401q0 -132 -41 -227t-122.5 -146.5t-202.5 -51.5q-95 0 -160 26t-101 57.5t-45 46.5l75 147q11 -18 35 -44.5t67 -46.5t108 -20q77 0 124.5 35.5t69.5 98.5t22 146v898h171v-919z" />
    <glyph glyph-name="Jcircumflex" unicode="&#x134;" horiz-adv-x="778" 
d="M653 401q0 -132 -41 -227t-122.5 -146.5t-202.5 -51.5q-95 0 -160 26t-101 57.5t-45 46.5l75 147q11 -18 35 -44.5t67 -46.5t108 -20q77 0 124.5 35.5t69.5 98.5t22 146v898h171v-919zM345 1404l-76 101l299 219l300 -220l-76 -102l-224 165z" />
    <glyph glyph-name="K" unicode="K" horiz-adv-x="1013" 
d="M440 667l539 -667h-206l-492 610v-610h-171v1320h171v-605l460 605h197z" />
    <glyph glyph-name="uni0136" unicode="&#x136;" horiz-adv-x="1013" 
d="M440 667l539 -667h-206l-492 610v-610h-171v1320h171v-605l460 605h197zM456 -488l-52 53q36 18 78 54.5t53 81.5q-16 -8 -40 -8q-40 0 -69.5 30t-29.5 74q0 50 33 81.5t80 31.5q48 0 82.5 -33.5t34.5 -92.5q0 -58 -23.5 -111t-62.5 -94.5t-84 -66.5z" />
    <glyph glyph-name="L" unicode="L" horiz-adv-x="917" 
d="M110 1320h171v-1165h519v-155h-690v1320z" />
    <glyph glyph-name="uni01C7" unicode="&#x1c7;" horiz-adv-x="1695" 
d="M110 1320h171v-1165h519v-155h-690v1320zM1570 401q0 -132 -41 -227t-122.5 -146.5t-202.5 -51.5q-95 0 -160 26t-101 57.5t-45 46.5l75 147q11 -18 35 -44.5t67 -46.5t108 -20q77 0 124.5 35.5t69.5 98.5t22 146v898h171v-919z" />
    <glyph glyph-name="Lacute" unicode="&#x139;" horiz-adv-x="917" 
d="M110 1320h171v-1165h519v-155h-690v1320zM350 1376l-62 83l305 251l98 -124z" />
    <glyph glyph-name="Lcaron" unicode="&#x13d;" horiz-adv-x="917" 
d="M811 989l-42 42q29 15 62.5 44t42.5 65q-13 -6 -32 -6q-32 0 -55.5 24t-23.5 60q0 39 26 64.5t64 25.5q39 0 67 -27t28 -73q0 -48 -19.5 -90.5t-50.5 -76t-67 -52.5zM110 1320h171v-1165h519v-155h-690v1320z" />
    <glyph glyph-name="uni013B" unicode="&#x13b;" horiz-adv-x="917" 
d="M110 1320h171v-1165h519v-155h-690v1320zM400 -488l-52 53q36 18 78 54.5t53 81.5q-16 -8 -40 -8q-40 0 -69.5 30t-29.5 74q0 50 33 81.5t80 31.5q48 0 82.5 -33.5t34.5 -92.5q0 -58 -23.5 -111t-62.5 -94.5t-84 -66.5z" />
    <glyph glyph-name="Ldot" unicode="&#x13f;" horiz-adv-x="917" 
d="M110 1320h171v-1165h519v-155h-690v1320zM602 536q-55 0 -94.5 39.5t-39.5 94.5q0 57 39.5 96.5t94.5 39.5q57 0 96 -39.5t39 -96.5q0 -55 -39 -94.5t-96 -39.5z" />
    <glyph glyph-name="uni01C8" unicode="&#x1c8;" horiz-adv-x="1395" 
d="M110 1320h171v-1165h519v-155h-690v1320zM987 -440q-67 0 -112 15t-66 29l65 133q13 -11 30.5 -18.5t51.5 -7.5q44 0 67.5 27t32.5 75.5t9 114.5v893h174v-935q0 -97 -24.5 -170.5t-79.5 -114.5t-148 -41zM1157 1102q-48 0 -81 33.5t-33 80.5q0 31 15.5 57t41.5 42t57 16
q32 0 58 -16t41 -42t15 -57q0 -47 -33 -80.5t-81 -33.5z" />
    <glyph glyph-name="Lslash" unicode="&#x141;" horiz-adv-x="979" 
d="M184 0v584l-138 -107v168l138 107v568h169v-435l139 110v-168l-139 -109v-563h508v-155h-677z" />
    <glyph glyph-name="M" unicode="M" horiz-adv-x="1475" 
d="M1305 1320v-1320h-170v953l9 146l-36 -161l-318 -863h-169l-318 863l-35 161l8 -146v-953h-171v1320h228l360 -1036l12 -67l13 67l361 1036h226z" />
    <glyph glyph-name="N" unicode="N" horiz-adv-x="1356" 
d="M271 1158l11 -2v-1156h-171v1320h241l685 -1155l-11 -2v1157h171v-1320h-243z" />
    <glyph glyph-name="uni01CA" unicode="&#x1ca;" horiz-adv-x="2134" 
d="M271 1158l11 -2v-1156h-171v1320h241l685 -1155l-11 -2v1157h171v-1320h-243zM2009 401q0 -132 -41 -227t-122.5 -146.5t-202.5 -51.5q-95 0 -160 26t-101 57.5t-45 46.5l75 147q11 -18 35 -44.5t67 -46.5t108 -20q77 0 124.5 35.5t69.5 98.5t22 146v898h171v-919z" />
    <glyph glyph-name="Nacute" unicode="&#x143;" horiz-adv-x="1356" 
d="M271 1158l11 -2v-1156h-171v1320h241l685 -1155l-11 -2v1157h171v-1320h-243zM602 1376l-62 83l305 251l98 -124z" />
    <glyph glyph-name="Ncaron" unicode="&#x147;" horiz-adv-x="1356" 
d="M271 1158l11 -2v-1156h-171v1320h241l685 -1155l-11 -2v1157h171v-1320h-243zM681 1416l-261 191l67 89l194 -141l196 142l65 -89z" />
    <glyph glyph-name="uni0145" unicode="&#x145;" horiz-adv-x="1356" 
d="M271 1158l11 -2v-1156h-171v1320h241l685 -1155l-11 -2v1157h171v-1320h-243zM625 -488l-52 53q36 18 78 54.5t53 81.5q-16 -8 -40 -8q-40 0 -69.5 30t-29.5 74q0 50 33 81.5t80 31.5q48 0 82.5 -33.5t34.5 -92.5q0 -58 -23.5 -111t-62.5 -94.5t-84 -66.5z" />
    <glyph glyph-name="uni01CB" unicode="&#x1cb;" horiz-adv-x="1834" 
d="M271 1158l11 -2v-1156h-171v1320h241l685 -1155l-11 -2v1157h171v-1320h-243zM1426 -440q-67 0 -112 15t-66 29l65 133q13 -11 30.5 -18.5t51.5 -7.5q44 0 67.5 27t32.5 75.5t9 114.5v893h174v-935q0 -97 -24.5 -170.5t-79.5 -114.5t-148 -41zM1596 1102q-48 0 -81 33.5
t-33 80.5q0 31 15.5 57t41.5 42t57 16q32 0 58 -16t41 -42t15 -57q0 -47 -33 -80.5t-81 -33.5z" />
    <glyph glyph-name="Ntilde" unicode="&#xd1;" horiz-adv-x="1356" 
d="M271 1158l11 -2v-1156h-171v1320h241l685 -1155l-11 -2v1157h171v-1320h-243zM364 1503q10 46 34.5 94t64 81.5t92.5 33.5q61 0 103 -19t79 -38t82 -19q35 0 56 26t27 50h126q-10 -44 -35.5 -92.5t-65 -82.5t-92.5 -34q-61 0 -104 19t-79 38t-76 19q-33 0 -55.5 -25.5
t-30.5 -50.5h-126z" />
    <glyph glyph-name="Eng" unicode="&#x14a;" horiz-adv-x="1356" 
d="M1197 0h-175v-40q0 -111 -32 -172t-99 -61q-31 0 -59 9.5t-42 18.5l-67 -137q18 -9 72.5 -28t128.5 -19q94 0 154 51t89.5 139.5t29.5 199.5v39zM271 1158l11 -2v-1156h-171v1320h241l685 -1155l-11 -2v1157h171v-1320h-243z" />
    <glyph glyph-name="O" unicode="O" horiz-adv-x="1445" 
d="M222 661q0 -147 61.5 -265t169.5 -187.5t248 -69.5q141 0 248.5 69.5t168.5 187.5t61 265t-61 264.5t-168.5 186.5t-248.5 69q-140 0 -248 -69t-169.5 -186.5t-61.5 -264.5zM45 661q0 144 49.5 268.5t138.5 217.5t208.5 145t259.5 52q141 0 260.5 -52t208 -145
t137.5 -217.5t49 -268.5q0 -145 -48.5 -269.5t-137 -218t-207.5 -145.5t-262 -52t-263.5 52t-208.5 145.5t-136 218t-48 269.5z" />
    <glyph glyph-name="Oacute" unicode="&#xd3;" horiz-adv-x="1445" 
d="M222 661q0 -147 61.5 -265t169.5 -187.5t248 -69.5q141 0 248.5 69.5t168.5 187.5t61 265t-61 264.5t-168.5 186.5t-248.5 69q-140 0 -248 -69t-169.5 -186.5t-61.5 -264.5zM45 661q0 144 49.5 268.5t138.5 217.5t208.5 145t259.5 52q141 0 260.5 -52t208 -145
t137.5 -217.5t49 -268.5q0 -145 -48.5 -269.5t-137 -218t-207.5 -145.5t-262 -52t-263.5 52t-208.5 145.5t-136 218t-48 269.5zM622 1376l-62 83l305 251l98 -124z" />
    <glyph glyph-name="Obreve" unicode="&#x14e;" horiz-adv-x="1445" 
d="M222 661q0 -147 61.5 -265t169.5 -187.5t248 -69.5q141 0 248.5 69.5t168.5 187.5t61 265t-61 264.5t-168.5 186.5t-248.5 69q-140 0 -248 -69t-169.5 -186.5t-61.5 -264.5zM45 661q0 144 49.5 268.5t138.5 217.5t208.5 145t259.5 52q141 0 260.5 -52t208 -145
t137.5 -217.5t49 -268.5q0 -145 -48.5 -269.5t-137 -218t-207.5 -145.5t-262 -52t-263.5 52t-208.5 145.5t-136 218t-48 269.5zM701 1395q-81 0 -140.5 31t-94 79.5t-41.5 103.5l126 32q5 -29 22.5 -61t49.5 -54t78 -22t77.5 22t49 54t22.5 61l126 -32q-5 -52 -39.5 -101.5
t-94 -81t-141.5 -31.5z" />
    <glyph glyph-name="Ocircumflex" unicode="&#xd4;" horiz-adv-x="1445" 
d="M222 661q0 -147 61.5 -265t169.5 -187.5t248 -69.5q141 0 248.5 69.5t168.5 187.5t61 265t-61 264.5t-168.5 186.5t-248.5 69q-140 0 -248 -69t-169.5 -186.5t-61.5 -264.5zM45 661q0 144 49.5 268.5t138.5 217.5t208.5 145t259.5 52q141 0 260.5 -52t208 -145
t137.5 -217.5t49 -268.5q0 -145 -48.5 -269.5t-137 -218t-207.5 -145.5t-262 -52t-263.5 52t-208.5 145.5t-136 218t-48 269.5zM477 1404l-76 101l299 219l300 -220l-76 -102l-224 165z" />
    <glyph glyph-name="uni1ED0" unicode="&#x1ed0;" horiz-adv-x="1445" 
d="M222 661q0 -147 61.5 -265t169.5 -187.5t248 -69.5q141 0 248.5 69.5t168.5 187.5t61 265t-61 264.5t-168.5 186.5t-248.5 69q-140 0 -248 -69t-169.5 -186.5t-61.5 -264.5zM45 661q0 144 49.5 268.5t138.5 217.5t208.5 145t259.5 52q141 0 260.5 -52t208 -145
t137.5 -217.5t49 -268.5q0 -145 -48.5 -269.5t-137 -218t-207.5 -145.5t-262 -52t-263.5 52t-208.5 145.5t-136 218t-48 269.5zM925 1408l-224 164l-223 -163l-76 102l299 219l300 -220zM917 1672l-61 83l304 251l99 -124z" />
    <glyph glyph-name="uni1ED8" unicode="&#x1ed8;" horiz-adv-x="1445" 
d="M222 661q0 -147 61.5 -265t169.5 -187.5t248 -69.5q141 0 248.5 69.5t168.5 187.5t61 265t-61 264.5t-168.5 186.5t-248.5 69q-140 0 -248 -69t-169.5 -186.5t-61.5 -264.5zM45 661q0 144 49.5 268.5t138.5 217.5t208.5 145t259.5 52q141 0 260.5 -52t208 -145
t137.5 -217.5t49 -268.5q0 -145 -48.5 -269.5t-137 -218t-207.5 -145.5t-262 -52t-263.5 52t-208.5 145.5t-136 218t-48 269.5zM700 -309q-38 0 -65 28t-27 64q0 38 27 66t65 28t65.5 -28t27.5 -66t-27.5 -65t-65.5 -27zM477 1404l-76 101l299 219l300 -220l-76 -102
l-224 165z" />
    <glyph glyph-name="uni1ED2" unicode="&#x1ed2;" horiz-adv-x="1445" 
d="M222 661q0 -147 61.5 -265t169.5 -187.5t248 -69.5q141 0 248.5 69.5t168.5 187.5t61 265t-61 264.5t-168.5 186.5t-248.5 69q-140 0 -248 -69t-169.5 -186.5t-61.5 -264.5zM45 661q0 144 49.5 268.5t138.5 217.5t208.5 145t259.5 52q141 0 260.5 -52t208 -145
t137.5 -217.5t49 -268.5q0 -145 -48.5 -269.5t-137 -218t-207.5 -145.5t-262 -52t-263.5 52t-208.5 145.5t-136 218t-48 269.5zM929 1410l-224 164l-223 -163l-76 101l299 219l300 -219zM1078 1646l-341 210l98 124l305 -251z" />
    <glyph glyph-name="uni1ED4" unicode="&#x1ed4;" horiz-adv-x="1445" 
d="M222 661q0 -147 61.5 -265t169.5 -187.5t248 -69.5q141 0 248.5 69.5t168.5 187.5t61 265t-61 264.5t-168.5 186.5t-248.5 69q-140 0 -248 -69t-169.5 -186.5t-61.5 -264.5zM45 661q0 144 49.5 268.5t138.5 217.5t208.5 145t259.5 52q141 0 260.5 -52t208 -145
t137.5 -217.5t49 -268.5q0 -145 -48.5 -269.5t-137 -218t-207.5 -145.5t-262 -52t-263.5 52t-208.5 145.5t-136 218t-48 269.5zM891 1664l-54 80q26 6 65.5 27t71 56t31.5 83q0 49 -20 70.5t-50 27.5t-61 6q-43 0 -92.5 -16.5t-79.5 -31.5v105q18 12 67 30t133 18
q57 0 108 -17.5t83.5 -59.5t32.5 -117q0 -58 -24.5 -102t-62 -75.5t-77 -51.5t-71.5 -32zM927 1408l-224 164l-223 -163l-76 102l299 219l300 -220z" />
    <glyph glyph-name="uni1ED6" unicode="&#x1ed6;" horiz-adv-x="1445" 
d="M222 661q0 -147 61.5 -265t169.5 -187.5t248 -69.5q141 0 248.5 69.5t168.5 187.5t61 265t-61 264.5t-168.5 186.5t-248.5 69q-140 0 -248 -69t-169.5 -186.5t-61.5 -264.5zM45 661q0 144 49.5 268.5t138.5 217.5t208.5 145t259.5 52q141 0 260.5 -52t208 -145
t137.5 -217.5t49 -268.5q0 -145 -48.5 -269.5t-137 -218t-207.5 -145.5t-262 -52t-263.5 52t-208.5 145.5t-136 218t-48 269.5zM375 1770q10 45 34.5 93t64 82t92.5 34q61 0 103 -19t79 -38t82 -19q35 0 56 26t27 50h126q-10 -45 -35.5 -93.5t-65 -82t-92.5 -33.5
q-61 0 -104 19t-79 37.5t-76 18.5q-33 0 -55.5 -25.5t-30.5 -49.5h-126zM922 1408l-224 164l-223 -163l-76 102l299 219l300 -220z" />
    <glyph glyph-name="uni020C" unicode="&#x20c;" horiz-adv-x="1445" 
d="M222 661q0 -147 61.5 -265t169.5 -187.5t248 -69.5q141 0 248.5 69.5t168.5 187.5t61 265t-61 264.5t-168.5 186.5t-248.5 69q-140 0 -248 -69t-169.5 -186.5t-61.5 -264.5zM45 661q0 144 49.5 268.5t138.5 217.5t208.5 145t259.5 52q141 0 260.5 -52t208 -145
t137.5 -217.5t49 -268.5q0 -145 -48.5 -269.5t-137 -218t-207.5 -145.5t-262 -52t-263.5 52t-208.5 145.5t-136 218t-48 269.5zM953 1373l-341 210l98 124l306 -251zM581 1373l-341 210l98 124l305 -251z" />
    <glyph glyph-name="Odieresis" unicode="&#xd6;" horiz-adv-x="1445" 
d="M222 661q0 -147 61.5 -265t169.5 -187.5t248 -69.5q141 0 248.5 69.5t168.5 187.5t61 265t-61 264.5t-168.5 186.5t-248.5 69q-140 0 -248 -69t-169.5 -186.5t-61.5 -264.5zM45 661q0 144 49.5 268.5t138.5 217.5t208.5 145t259.5 52q141 0 260.5 -52t208 -145
t137.5 -217.5t49 -268.5q0 -145 -48.5 -269.5t-137 -218t-207.5 -145.5t-262 -52t-263.5 52t-208.5 145.5t-136 218t-48 269.5zM896 1410q-44 0 -75.5 32t-31.5 75t31.5 75.5t75.5 32.5q43 0 75 -32t32 -76t-32 -75.5t-75 -31.5zM506 1410q-44 0 -75 32t-31 75t31 75.5
t75 32.5t75.5 -32t31.5 -76t-31.5 -75.5t-75.5 -31.5z" />
    <glyph glyph-name="uni022A" unicode="&#x22a;" horiz-adv-x="1445" 
d="M222 661q0 -147 61.5 -265t169.5 -187.5t248 -69.5q141 0 248.5 69.5t168.5 187.5t61 265t-61 264.5t-168.5 186.5t-248.5 69q-140 0 -248 -69t-169.5 -186.5t-61.5 -264.5zM45 661q0 144 49.5 268.5t138.5 217.5t208.5 145t259.5 52q141 0 260.5 -52t208 -145
t137.5 -217.5t49 -268.5q0 -145 -48.5 -269.5t-137 -218t-207.5 -145.5t-262 -52t-263.5 52t-208.5 145.5t-136 218t-48 269.5zM896 1410q-44 0 -75.5 32t-31.5 75t31.5 75.5t75.5 32.5q43 0 75 -32t32 -76t-32 -75.5t-75 -31.5zM506 1410q-44 0 -75 32t-31 75t31 75.5
t75 32.5t75.5 -32t31.5 -76t-31.5 -75.5t-75.5 -31.5zM407 1762v122h587v-122h-587z" />
    <glyph glyph-name="uni0230" unicode="&#x230;" horiz-adv-x="1445" 
d="M222 661q0 -147 61.5 -265t169.5 -187.5t248 -69.5q141 0 248.5 69.5t168.5 187.5t61 265t-61 264.5t-168.5 186.5t-248.5 69q-140 0 -248 -69t-169.5 -186.5t-61.5 -264.5zM45 661q0 144 49.5 268.5t138.5 217.5t208.5 145t259.5 52q141 0 260.5 -52t208 -145
t137.5 -217.5t49 -268.5q0 -145 -48.5 -269.5t-137 -218t-207.5 -145.5t-262 -52t-263.5 52t-208.5 145.5t-136 218t-48 269.5zM700 1439q-44 0 -75 32t-31 75t31 75t75 32t75.5 -31.5t31.5 -75.5t-31.5 -75.5t-75.5 -31.5zM407 1764v122h587v-122h-587z" />
    <glyph glyph-name="uni1ECC" unicode="&#x1ecc;" horiz-adv-x="1445" 
d="M222 661q0 -147 61.5 -265t169.5 -187.5t248 -69.5q141 0 248.5 69.5t168.5 187.5t61 265t-61 264.5t-168.5 186.5t-248.5 69q-140 0 -248 -69t-169.5 -186.5t-61.5 -264.5zM45 661q0 144 49.5 268.5t138.5 217.5t208.5 145t259.5 52q141 0 260.5 -52t208 -145
t137.5 -217.5t49 -268.5q0 -145 -48.5 -269.5t-137 -218t-207.5 -145.5t-262 -52t-263.5 52t-208.5 145.5t-136 218t-48 269.5zM700 -309q-38 0 -65 28t-27 64q0 38 27 66t65 28t65.5 -28t27.5 -66t-27.5 -65t-65.5 -27z" />
    <glyph glyph-name="Ograve" unicode="&#xd2;" horiz-adv-x="1445" 
d="M222 661q0 -147 61.5 -265t169.5 -187.5t248 -69.5q141 0 248.5 69.5t168.5 187.5t61 265t-61 264.5t-168.5 186.5t-248.5 69q-140 0 -248 -69t-169.5 -186.5t-61.5 -264.5zM45 661q0 144 49.5 268.5t138.5 217.5t208.5 145t259.5 52q141 0 260.5 -52t208 -145
t137.5 -217.5t49 -268.5q0 -145 -48.5 -269.5t-137 -218t-207.5 -145.5t-262 -52t-263.5 52t-208.5 145.5t-136 218t-48 269.5zM761 1376l-341 210l98 124l306 -251z" />
    <glyph glyph-name="uni1ECE" unicode="&#x1ece;" horiz-adv-x="1445" 
d="M222 661q0 -147 61.5 -265t169.5 -187.5t248 -69.5q141 0 248.5 69.5t168.5 187.5t61 265t-61 264.5t-168.5 186.5t-248.5 69q-140 0 -248 -69t-169.5 -186.5t-61.5 -264.5zM45 661q0 144 49.5 268.5t138.5 217.5t208.5 145t259.5 52q141 0 260.5 -52t208 -145
t137.5 -217.5t49 -268.5q0 -145 -48.5 -269.5t-137 -218t-207.5 -145.5t-262 -52t-263.5 52t-208.5 145.5t-136 218t-48 269.5zM678 1396l-54 73q26 6 65.5 23.5t71 47t31.5 69.5q0 44 -20 63.5t-50 25t-61 5.5q-43 0 -92.5 -15.5t-79.5 -30.5v95q18 12 67 29t133 17
q57 0 108 -16t83.5 -54.5t32.5 -104.5q0 -51 -24.5 -88t-62 -64t-77 -45t-71.5 -30z" />
    <glyph glyph-name="Ohorn" unicode="&#x1a0;" horiz-adv-x="1445" 
d="M222 661q0 -147 61.5 -265t169.5 -187.5t248 -69.5q141 0 248.5 69.5t168.5 187.5t61 265t-61 264.5t-168.5 186.5t-248.5 69q-140 0 -248 -69t-169.5 -186.5t-61.5 -264.5zM45 661q0 144 49.5 268.5t138.5 217.5t208.5 145t259.5 52q141 0 260.5 -52t208 -145
t137.5 -217.5t49 -268.5q0 -145 -48.5 -269.5t-137 -218t-207.5 -145.5t-262 -52t-263.5 52t-208.5 145.5t-136 218t-48 269.5zM1203 1072q-31 0 -57.5 9t-49.5 22v97q15 -13 39 -22t54 -9q58 0 88 41t30 91q0 43 -6 67.5t-18 52.5h122q8 -13 18 -44.5t10 -87.5
q0 -58 -31.5 -107.5t-83.5 -79.5t-115 -30z" />
    <glyph glyph-name="uni1EDA" unicode="&#x1eda;" horiz-adv-x="1445" 
d="M222 661q0 -147 61.5 -265t169.5 -187.5t248 -69.5q141 0 248.5 69.5t168.5 187.5t61 265t-61 264.5t-168.5 186.5t-248.5 69q-140 0 -248 -69t-169.5 -186.5t-61.5 -264.5zM45 661q0 144 49.5 268.5t138.5 217.5t208.5 145t259.5 52q141 0 260.5 -52t208 -145
t137.5 -217.5t49 -268.5q0 -145 -48.5 -269.5t-137 -218t-207.5 -145.5t-262 -52t-263.5 52t-208.5 145.5t-136 218t-48 269.5zM1203 1072q-31 0 -57.5 9t-49.5 22v97q15 -13 39 -22t54 -9q58 0 88 41t30 91q0 43 -6 67.5t-18 52.5h122q8 -13 18 -44.5t10 -87.5
q0 -58 -31.5 -107.5t-83.5 -79.5t-115 -30zM577 1433l-61 83l303 251l100 -124z" />
    <glyph glyph-name="uni1EE2" unicode="&#x1ee2;" horiz-adv-x="1445" 
d="M222 661q0 -147 61.5 -265t169.5 -187.5t248 -69.5q141 0 248.5 69.5t168.5 187.5t61 265t-61 264.5t-168.5 186.5t-248.5 69q-140 0 -248 -69t-169.5 -186.5t-61.5 -264.5zM45 661q0 144 49.5 268.5t138.5 217.5t208.5 145t259.5 52q141 0 260.5 -52t208 -145
t137.5 -217.5t49 -268.5q0 -145 -48.5 -269.5t-137 -218t-207.5 -145.5t-262 -52t-263.5 52t-208.5 145.5t-136 218t-48 269.5zM1203 1072q-31 0 -57.5 9t-49.5 22v97q15 -13 39 -22t54 -9q58 0 88 41t30 91q0 43 -6 67.5t-18 52.5h122q8 -13 18 -44.5t10 -87.5
q0 -58 -31.5 -107.5t-83.5 -79.5t-115 -30zM701 -335q-38 0 -65 27.5t-27 64.5t27 65t65 28t65.5 -27.5t27.5 -65.5t-27.5 -65t-65.5 -27z" />
    <glyph glyph-name="uni1EDC" unicode="&#x1edc;" horiz-adv-x="1445" 
d="M222 661q0 -147 61.5 -265t169.5 -187.5t248 -69.5q141 0 248.5 69.5t168.5 187.5t61 265t-61 264.5t-168.5 186.5t-248.5 69q-140 0 -248 -69t-169.5 -186.5t-61.5 -264.5zM45 661q0 144 49.5 268.5t138.5 217.5t208.5 145t259.5 52q141 0 260.5 -52t208 -145
t137.5 -217.5t49 -268.5q0 -145 -48.5 -269.5t-137 -218t-207.5 -145.5t-262 -52t-263.5 52t-208.5 145.5t-136 218t-48 269.5zM1203 1072q-31 0 -57.5 9t-49.5 22v97q15 -13 39 -22t54 -9q58 0 88 41t30 91q0 43 -6 67.5t-18 52.5h122q8 -13 18 -44.5t10 -87.5
q0 -58 -31.5 -107.5t-83.5 -79.5t-115 -30zM857 1473l-341 209l98 124l306 -251z" />
    <glyph glyph-name="uni1EDE" unicode="&#x1ede;" horiz-adv-x="1445" 
d="M222 661q0 -147 61.5 -265t169.5 -187.5t248 -69.5q141 0 248.5 69.5t168.5 187.5t61 265t-61 264.5t-168.5 186.5t-248.5 69q-140 0 -248 -69t-169.5 -186.5t-61.5 -264.5zM45 661q0 144 49.5 268.5t138.5 217.5t208.5 145t259.5 52q141 0 260.5 -52t208 -145
t137.5 -217.5t49 -268.5q0 -145 -48.5 -269.5t-137 -218t-207.5 -145.5t-262 -52t-263.5 52t-208.5 145.5t-136 218t-48 269.5zM1203 1072q-31 0 -57.5 9t-49.5 22v97q15 -13 39 -22t54 -9q58 0 88 41t30 91q0 43 -6 67.5t-18 52.5h122q8 -13 18 -44.5t10 -87.5
q0 -58 -31.5 -107.5t-83.5 -79.5t-115 -30zM678 1371l-54 80q26 6 65.5 27t71 56t31.5 83q0 49 -20 70.5t-50 27.5t-61 6q-43 0 -92.5 -16.5t-79.5 -31.5v105q18 12 67 30t133 18q57 0 108 -17.5t83.5 -59.5t32.5 -117q0 -58 -24.5 -102t-62 -75.5t-77 -51.5t-71.5 -32z" />
    <glyph glyph-name="uni1EE0" unicode="&#x1ee0;" horiz-adv-x="1445" 
d="M222 661q0 -147 61.5 -265t169.5 -187.5t248 -69.5q141 0 248.5 69.5t168.5 187.5t61 265t-61 264.5t-168.5 186.5t-248.5 69q-140 0 -248 -69t-169.5 -186.5t-61.5 -264.5zM45 661q0 144 49.5 268.5t138.5 217.5t208.5 145t259.5 52q141 0 260.5 -52t208 -145
t137.5 -217.5t49 -268.5q0 -145 -48.5 -269.5t-137 -218t-207.5 -145.5t-262 -52t-263.5 52t-208.5 145.5t-136 218t-48 269.5zM1203 1072q-31 0 -57.5 9t-49.5 22v97q15 -13 39 -22t54 -9q58 0 88 41t30 91q0 43 -6 67.5t-18 52.5h122q8 -13 18 -44.5t10 -87.5
q0 -58 -31.5 -107.5t-83.5 -79.5t-115 -30zM385 1503q10 46 34.5 94t64 81.5t92.5 33.5q61 0 103 -19t79 -38t82 -19q35 0 56 26t27 50h126q-10 -44 -35.5 -92.5t-65 -82.5t-92.5 -34q-61 0 -104 19t-79 38t-76 19q-33 0 -55.5 -25.5t-30.5 -50.5h-126z" />
    <glyph glyph-name="Ohungarumlaut" unicode="&#x150;" horiz-adv-x="1416" 
d="M222 661q0 -147 61.5 -265t169.5 -187.5t248 -69.5q141 0 248.5 69.5t168.5 187.5t61 265t-61 264.5t-168.5 186.5t-248.5 69q-140 0 -248 -69t-169.5 -186.5t-61.5 -264.5zM45 661q0 144 49.5 268.5t138.5 217.5t208.5 145t259.5 52q141 0 260.5 -52t208 -145
t137.5 -217.5t49 -268.5q0 -145 -48.5 -269.5t-137 -218t-207.5 -145.5t-262 -52t-263.5 52t-208.5 145.5t-136 218t-48 269.5zM843 1468l-63 77l269 293l94 -118zM501 1468l-62 77l268 293l94 -118z" />
    <glyph glyph-name="uni020E" unicode="&#x20e;" horiz-adv-x="1445" 
d="M222 661q0 -147 61.5 -265t169.5 -187.5t248 -69.5q141 0 248.5 69.5t168.5 187.5t61 265t-61 264.5t-168.5 186.5t-248.5 69q-140 0 -248 -69t-169.5 -186.5t-61.5 -264.5zM45 661q0 144 49.5 268.5t138.5 217.5t208.5 145t259.5 52q141 0 260.5 -52t208 -145
t137.5 -217.5t49 -268.5q0 -145 -48.5 -269.5t-137 -218t-207.5 -145.5t-262 -52t-263.5 52t-208.5 145.5t-136 218t-48 269.5zM543 1450l-138 34q7 57 43.5 110t100.5 86.5t151 33.5q86 0 149.5 -33t101 -85t43.5 -112l-137 -34q-4 32 -23 65.5t-52 56.5t-82 23t-82 -23
t-51.5 -56.5t-23.5 -65.5z" />
    <glyph glyph-name="Omacron" unicode="&#x14c;" horiz-adv-x="1445" 
d="M222 661q0 -147 61.5 -265t169.5 -187.5t248 -69.5q141 0 248.5 69.5t168.5 187.5t61 265t-61 264.5t-168.5 186.5t-248.5 69q-140 0 -248 -69t-169.5 -186.5t-61.5 -264.5zM45 661q0 144 49.5 268.5t138.5 217.5t208.5 145t259.5 52q141 0 260.5 -52t208 -145
t137.5 -217.5t49 -268.5q0 -145 -48.5 -269.5t-137 -218t-207.5 -145.5t-262 -52t-263.5 52t-208.5 145.5t-136 218t-48 269.5zM425 1548v122h587v-122h-587z" />
    <glyph glyph-name="uni01EA" unicode="&#x1ea;" horiz-adv-x="1445" 
d="M222 661q0 -147 61.5 -265t169.5 -187.5t248 -69.5q141 0 248.5 69.5t168.5 187.5t61 265t-61 264.5t-168.5 186.5t-248.5 69q-140 0 -248 -69t-169.5 -186.5t-61.5 -264.5zM45 661q0 144 49.5 268.5t138.5 217.5t208.5 145t259.5 52q141 0 260.5 -52t208 -145
t137.5 -217.5t49 -268.5q0 -145 -48.5 -269.5t-137 -218t-207.5 -145.5t-262 -52t-263.5 52t-208.5 145.5t-136 218t-48 269.5zM818 -427q-42 0 -87.5 15t-77 53.5t-31.5 107.5q0 50 28.5 104.5t70 104t79.5 83.5l64 -41q-27 -27 -57 -66.5t-51 -84t-21 -85.5q0 -50 32 -70
t72 -20t71 20.5t46 42.5l81 -62q-23 -38 -85 -70t-134 -32z" />
    <glyph glyph-name="Oslash" unicode="&#xd8;" horiz-adv-x="1416" 
d="M1296 1337l72 -65l-1283 -1314l-72 66zM222 661q0 -147 61.5 -265t169.5 -187.5t248 -69.5q141 0 248.5 69.5t168.5 187.5t61 265t-61 264.5t-168.5 186.5t-248.5 69q-140 0 -248 -69t-169.5 -186.5t-61.5 -264.5zM45 661q0 144 49.5 268.5t138.5 217.5t208.5 145
t259.5 52q141 0 260.5 -52t208 -145t137.5 -217.5t49 -268.5q0 -145 -48.5 -269.5t-137 -218t-207.5 -145.5t-262 -52t-263.5 52t-208.5 145.5t-136 218t-48 269.5z" />
    <glyph glyph-name="Oslashacute" unicode="&#x1fe;" horiz-adv-x="1416" 
d="M1296 1337l72 -65l-1283 -1314l-72 66zM222 661q0 -147 61.5 -265t169.5 -187.5t248 -69.5q141 0 248.5 69.5t168.5 187.5t61 265t-61 264.5t-168.5 186.5t-248.5 69q-140 0 -248 -69t-169.5 -186.5t-61.5 -264.5zM45 661q0 144 49.5 268.5t138.5 217.5t208.5 145
t259.5 52q141 0 260.5 -52t208 -145t137.5 -217.5t49 -268.5q0 -145 -48.5 -269.5t-137 -218t-207.5 -145.5t-262 -52t-263.5 52t-208.5 145.5t-136 218t-48 269.5zM577 1433l-61 83l303 251l100 -124z" />
    <glyph glyph-name="Otilde" unicode="&#xd5;" horiz-adv-x="1445" 
d="M222 661q0 -147 61.5 -265t169.5 -187.5t248 -69.5q141 0 248.5 69.5t168.5 187.5t61 265t-61 264.5t-168.5 186.5t-248.5 69q-140 0 -248 -69t-169.5 -186.5t-61.5 -264.5zM45 661q0 144 49.5 268.5t138.5 217.5t208.5 145t259.5 52q141 0 260.5 -52t208 -145
t137.5 -217.5t49 -268.5q0 -145 -48.5 -269.5t-137 -218t-207.5 -145.5t-262 -52t-263.5 52t-208.5 145.5t-136 218t-48 269.5zM385 1503q10 46 34.5 94t64 81.5t92.5 33.5q61 0 103 -19t79 -38t82 -19q35 0 56 26t27 50h126q-10 -44 -35.5 -92.5t-65 -82.5t-92.5 -34
q-61 0 -104 19t-79 38t-76 19q-33 0 -55.5 -25.5t-30.5 -50.5h-126z" />
    <glyph glyph-name="uni022C" unicode="&#x22c;" horiz-adv-x="1445" 
d="M222 661q0 -147 61.5 -265t169.5 -187.5t248 -69.5q141 0 248.5 69.5t168.5 187.5t61 265t-61 264.5t-168.5 186.5t-248.5 69q-140 0 -248 -69t-169.5 -186.5t-61.5 -264.5zM45 661q0 144 49.5 268.5t138.5 217.5t208.5 145t259.5 52q141 0 260.5 -52t208 -145
t137.5 -217.5t49 -268.5q0 -145 -48.5 -269.5t-137 -218t-207.5 -145.5t-262 -52t-263.5 52t-208.5 145.5t-136 218t-48 269.5zM385 1503q10 46 34.5 94t64 81.5t92.5 33.5q61 0 103 -19t79 -38t82 -19q35 0 56 26t27 50h126q-10 -44 -35.5 -92.5t-65 -82.5t-92.5 -34
q-61 0 -104 19t-79 38t-76 19q-33 0 -55.5 -25.5t-30.5 -50.5h-126zM427 1828v122h587v-122h-587z" />
    <glyph glyph-name="OE" unicode="&#x152;" horiz-adv-x="1596" 
d="M685 0q-143 0 -260 48.5t-200.5 137t-128.5 209.5t-45 265q0 145 47.5 266t133.5 209t201.5 136.5t251.5 48.5h769v-155h-531v-426h512v-154h-512v-430h531v-155h-769zM695 154h59v1015h-59q-142 0 -245.5 -69t-159 -184t-55.5 -255q0 -141 53.5 -255.5t156.5 -183
t250 -68.5z" />
    <glyph glyph-name="P" unicode="P" horiz-adv-x="1037" 
d="M120 1320h374q124 0 223.5 -40.5t158.5 -126.5t59 -224q0 -137 -59 -227t-158.5 -134.5t-223.5 -44.5h-203v-523h-171v1320zM291 666h156q85 0 154.5 25t111 82t41.5 153q0 97 -41.5 151.5t-111 77t-154.5 22.5h-156v-511z" />
    <glyph glyph-name="Thorn" unicode="&#xde;" horiz-adv-x="1026" 
d="M111 1320h169v-245h247q117 0 209.5 -44.5t145.5 -134.5t53 -227q0 -136 -53 -230.5t-145.5 -144t-209.5 -49.5h-247v-245h-169v1320zM280 387h216q117 0 186.5 73t69.5 209t-69.5 200t-186.5 64h-216v-546z" />
    <glyph glyph-name="Q" unicode="Q" horiz-adv-x="1416" 
d="M1068 -67q57 0 100 13t68 27t28 18l71 -122q-25 -29 -91.5 -63.5t-177.5 -34.5q-70 0 -119.5 15t-92.5 35.5t-90 36t-111 15.5q-61 0 -109 -21.5t-77 -43.5t-31 -26l-84 96q64 60 144 96.5t188 36.5q78 0 138.5 -19.5t118.5 -39t127 -19.5zM222 661q0 -147 61.5 -265
t169.5 -187.5t248 -69.5q141 0 248.5 69.5t168.5 187.5t61 265t-61 264.5t-168.5 186.5t-248.5 69q-140 0 -248 -69t-169.5 -186.5t-61.5 -264.5zM45 661q0 144 49.5 268.5t138.5 217.5t208.5 145t259.5 52q141 0 260.5 -52t208 -145t137.5 -217.5t49 -268.5
q0 -145 -48.5 -269.5t-137 -218t-207.5 -145.5t-262 -52t-263.5 52t-208.5 145.5t-136 218t-48 269.5z" />
    <glyph glyph-name="R" unicode="R" horiz-adv-x="1109" 
d="M110 1320h461q107 0 194.5 -44.5t140 -130t52.5 -208.5q0 -122 -48.5 -202t-116.5 -120.5t-126 -44.5l327 -570h-194l-306 558h-213v-558h-171v1320zM281 685h230q118 0 195 59t77 189t-76.5 187t-194.5 57h-231v-492z" />
    <glyph glyph-name="Racute" unicode="&#x154;" horiz-adv-x="1109" 
d="M110 1320h461q107 0 194.5 -44.5t140 -130t52.5 -208.5q0 -122 -48.5 -202t-116.5 -120.5t-126 -44.5l327 -570h-194l-306 558h-213v-558h-171v1320zM281 685h230q118 0 195 59t77 189t-76.5 187t-194.5 57h-231v-492zM435 1376l-62 83l305 251l98 -124z" />
    <glyph glyph-name="Rcaron" unicode="&#x158;" horiz-adv-x="1109" 
d="M110 1320h461q107 0 194.5 -44.5t140 -130t52.5 -208.5q0 -122 -48.5 -202t-116.5 -120.5t-126 -44.5l327 -570h-194l-306 558h-213v-558h-171v1320zM281 685h230q118 0 195 59t77 189t-76.5 187t-194.5 57h-231v-492zM514 1416l-261 191l67 89l194 -141l196 142l65 -89z
" />
    <glyph glyph-name="uni0156" unicode="&#x156;" horiz-adv-x="1109" 
d="M110 1320h461q107 0 194.5 -44.5t140 -130t52.5 -208.5q0 -122 -48.5 -202t-116.5 -120.5t-126 -44.5l327 -570h-194l-306 558h-213v-558h-171v1320zM281 685h230q118 0 195 59t77 189t-76.5 187t-194.5 57h-231v-492zM458 -488l-52 53q36 18 78 54.5t53 81.5
q-16 -8 -40 -8q-40 0 -69.5 30t-29.5 74q0 50 33 81.5t80 31.5q48 0 82.5 -33.5t34.5 -92.5q0 -58 -23.5 -111t-62.5 -94.5t-84 -66.5z" />
    <glyph glyph-name="uni0210" unicode="&#x210;" horiz-adv-x="1109" 
d="M110 1320h461q107 0 194.5 -44.5t140 -130t52.5 -208.5q0 -122 -48.5 -202t-116.5 -120.5t-126 -44.5l327 -570h-194l-306 558h-213v-558h-171v1320zM281 685h230q118 0 195 59t77 189t-76.5 187t-194.5 57h-231v-492zM765 1373l-341 210l98 124l306 -251zM393 1373
l-341 210l98 124l305 -251z" />
    <glyph glyph-name="uni0212" unicode="&#x212;" horiz-adv-x="1109" 
d="M110 1320h461q107 0 194.5 -44.5t140 -130t52.5 -208.5q0 -122 -48.5 -202t-116.5 -120.5t-126 -44.5l327 -570h-194l-306 558h-213v-558h-171v1320zM281 685h230q118 0 195 59t77 189t-76.5 187t-194.5 57h-231v-492zM365 1400l-126 31q6 52 40 101.5t93.5 81
t140.5 31.5t140 -31t94 -79.5t41 -103.5l-126 -31q-4 29 -22 60.5t-49.5 53.5t-77.5 22t-77.5 -22t-48.5 -53.5t-22 -60.5z" />
    <glyph glyph-name="S" unicode="S" horiz-adv-x="1056" 
d="M521 1344q114 0 196.5 -26t130 -55t56.5 -38l-88 -141q-15 13 -53 37.5t-95 44t-130 19.5q-113 0 -178.5 -45.5t-65.5 -128.5q0 -56 34.5 -98.5t97.5 -77.5t147 -72q69 -29 135.5 -66t121 -87t87 -116t32.5 -152q0 -85 -34.5 -153t-97 -115.5t-145.5 -72.5t-179 -25
q-121 0 -218.5 30t-157 63t-68.5 41l93 147q12 -10 44 -29.5t79 -40.5t106 -35.5t126 -14.5q134 0 203 60t69 154q0 72 -44 124t-117 93t-161 79q-90 41 -165 90t-120.5 117.5t-45.5 165.5q0 96 54.5 169t147 114t203.5 41z" />
    <glyph glyph-name="Sacute" unicode="&#x15a;" horiz-adv-x="1056" 
d="M521 1344q114 0 196.5 -26t130 -55t56.5 -38l-88 -141q-15 13 -53 37.5t-95 44t-130 19.5q-113 0 -178.5 -45.5t-65.5 -128.5q0 -56 34.5 -98.5t97.5 -77.5t147 -72q69 -29 135.5 -66t121 -87t87 -116t32.5 -152q0 -85 -34.5 -153t-97 -115.5t-145.5 -72.5t-179 -25
q-121 0 -218.5 30t-157 63t-68.5 41l93 147q12 -10 44 -29.5t79 -40.5t106 -35.5t126 -14.5q134 0 203 60t69 154q0 72 -44 124t-117 93t-161 79q-90 41 -165 90t-120.5 117.5t-45.5 165.5q0 96 54.5 169t147 114t203.5 41zM424 1376l-62 83l305 251l98 -124z" />
    <glyph glyph-name="Scaron" unicode="&#x160;" horiz-adv-x="1056" 
d="M521 1344q114 0 196.5 -26t130 -55t56.5 -38l-88 -141q-15 13 -53 37.5t-95 44t-130 19.5q-113 0 -178.5 -45.5t-65.5 -128.5q0 -56 34.5 -98.5t97.5 -77.5t147 -72q69 -29 135.5 -66t121 -87t87 -116t32.5 -152q0 -85 -34.5 -153t-97 -115.5t-145.5 -72.5t-179 -25
q-121 0 -218.5 30t-157 63t-68.5 41l93 147q12 -10 44 -29.5t79 -40.5t106 -35.5t126 -14.5q134 0 203 60t69 154q0 72 -44 124t-117 93t-161 79q-90 41 -165 90t-120.5 117.5t-45.5 165.5q0 96 54.5 169t147 114t203.5 41zM503 1416l-261 191l67 89l194 -141l196 142
l65 -89z" />
    <glyph glyph-name="Scedilla" unicode="&#x15e;" horiz-adv-x="1056" 
d="M521 1344q114 0 196.5 -26t130 -55t56.5 -38l-88 -141q-15 13 -53 37.5t-95 44t-130 19.5q-113 0 -178.5 -45.5t-65.5 -128.5q0 -56 34.5 -98.5t97.5 -77.5t147 -72q69 -29 135.5 -66t121 -87t87 -116t32.5 -152q0 -85 -34.5 -153t-97 -115.5t-145.5 -72.5t-179 -25
q-121 0 -218.5 30t-157 63t-68.5 41l93 147q12 -10 44 -29.5t79 -40.5t106 -35.5t126 -14.5q134 0 203 60t69 154q0 72 -44 124t-117 93t-161 79q-90 41 -165 90t-120.5 117.5t-45.5 165.5q0 96 54.5 169t147 114t203.5 41zM499 -425q-73 0 -130.5 22.5t-82.5 43.5l69 81
q19 -17 55.5 -34.5t77.5 -17.5q48 0 80.5 21.5t32.5 56.5q0 38 -27.5 56t-69.5 18q-31 0 -56 -4.5t-36 -9.5l-29 17l77 217l78 -32l-46 -128q48 10 101 0.5t90 -41t37 -86.5q0 -59 -32.5 -99t-83 -60.5t-105.5 -20.5z" />
    <glyph glyph-name="Scircumflex" unicode="&#x15c;" horiz-adv-x="1056" 
d="M521 1344q114 0 196.5 -26t130 -55t56.5 -38l-88 -141q-15 13 -53 37.5t-95 44t-130 19.5q-113 0 -178.5 -45.5t-65.5 -128.5q0 -56 34.5 -98.5t97.5 -77.5t147 -72q69 -29 135.5 -66t121 -87t87 -116t32.5 -152q0 -85 -34.5 -153t-97 -115.5t-145.5 -72.5t-179 -25
q-121 0 -218.5 30t-157 63t-68.5 41l93 147q12 -10 44 -29.5t79 -40.5t106 -35.5t126 -14.5q134 0 203 60t69 154q0 72 -44 124t-117 93t-161 79q-90 41 -165 90t-120.5 117.5t-45.5 165.5q0 96 54.5 169t147 114t203.5 41zM279 1404l-76 101l299 219l300 -220l-76 -102
l-224 165z" />
    <glyph glyph-name="uni0218" unicode="&#x218;" horiz-adv-x="1056" 
d="M521 1344q114 0 196.5 -26t130 -55t56.5 -38l-88 -141q-15 13 -53 37.5t-95 44t-130 19.5q-113 0 -178.5 -45.5t-65.5 -128.5q0 -56 34.5 -98.5t97.5 -77.5t147 -72q69 -29 135.5 -66t121 -87t87 -116t32.5 -152q0 -85 -34.5 -153t-97 -115.5t-145.5 -72.5t-179 -25
q-121 0 -218.5 30t-157 63t-68.5 41l93 147q12 -10 44 -29.5t79 -40.5t106 -35.5t126 -14.5q134 0 203 60t69 154q0 72 -44 124t-117 93t-161 79q-90 41 -165 90t-120.5 117.5t-45.5 165.5q0 96 54.5 169t147 114t203.5 41zM448 -488l-52 53q36 18 78 54.5t53 81.5
q-16 -8 -40 -8q-40 0 -69.5 30t-29.5 74q0 50 33 81.5t80 31.5q48 0 82.5 -33.5t34.5 -92.5q0 -58 -23.5 -111t-62.5 -94.5t-84 -66.5z" />
    <glyph glyph-name="uni1E9E" unicode="&#x1e9e;" horiz-adv-x="1237" 
d="M449 165q51 -18 110.5 -28.5t117.5 -10.5q136 0 206.5 73t70.5 187q0 133 -100 198.5t-314 33.5v159l290 405q-52 12 -111.5 18t-103.5 6q-123 0 -197 -41.5t-106.5 -126t-32.5 -213.5v-825h-169v901q0 160 62 259t176.5 145t273.5 46q54 0 116.5 -6t129.5 -17.5
t133 -27.5l-3 -143l-297 -413q77 5 152.5 -7.5t137.5 -52.5t99.5 -112.5t37.5 -186.5q0 -136 -59 -226.5t-157 -135.5t-216 -45q-138 0 -247 36v151z" />
    <glyph glyph-name="uni018F" unicode="&#x18f;" horiz-adv-x="1347" 
d="M639 -17q-136 0 -246 52t-187.5 145t-119 216t-41.5 266v18t1 24t1 16h1036q0 144 -54.5 248.5t-153.5 161.5t-234 57q-92 0 -163 -25.5t-121.5 -63t-81.5 -74.5t-43 -59l-136 111q27 50 101.5 112.5t188 109t257.5 46.5q178 0 317 -77t219 -225.5t80 -363.5
q0 -203 -75.5 -360t-214 -246t-330.5 -89zM641 131q107 0 189 39.5t137 105.5t83 148t28 168h-857q0 -83 27 -165t80 -149t131.5 -107t181.5 -40z" />
    <glyph glyph-name="T" unicode="T" horiz-adv-x="989" 
d="M383 1165h-356v155h884v-155h-356v-1165h-172v1165z" />
    <glyph glyph-name="Tbar" unicode="&#x166;" horiz-adv-x="989" 
d="M37 776h858v-134h-858v134zM383 1165h-356v155h884v-155h-356v-1165h-172v1165z" />
    <glyph glyph-name="Tcaron" unicode="&#x164;" horiz-adv-x="989" 
d="M383 1165h-356v155h884v-155h-356v-1165h-172v1165zM469 1416l-261 191l67 89l194 -141l196 142l65 -89z" />
    <glyph glyph-name="uni0162" unicode="&#x162;" horiz-adv-x="989" 
d="M383 1165h-356v155h884v-155h-356v-1165h-172v1165zM484 -425q-73 0 -130.5 22.5t-82.5 43.5l69 81q19 -17 55.5 -34.5t77.5 -17.5q48 0 80.5 21.5t32.5 56.5q0 38 -27.5 56t-69.5 18q-31 0 -56 -4.5t-36 -9.5l-29 17l77 217l78 -32l-46 -128q48 10 101 0.5t90 -41
t37 -86.5q0 -59 -32.5 -99t-83 -60.5t-105.5 -20.5z" />
    <glyph glyph-name="uni021A" unicode="&#x21a;" horiz-adv-x="989" 
d="M383 1165h-356v155h884v-155h-356v-1165h-172v1165zM413 -488l-52 53q36 18 78 54.5t53 81.5q-16 -8 -40 -8q-40 0 -69.5 30t-29.5 74q0 50 33 81.5t80 31.5q48 0 82.5 -33.5t34.5 -92.5q0 -58 -23.5 -111t-62.5 -94.5t-84 -66.5z" />
    <glyph glyph-name="U" unicode="U" horiz-adv-x="1243" 
d="M935 1320h171v-820q0 -163 -65 -280.5t-178.5 -180.5t-259.5 -63t-260.5 63t-179.5 180.5t-65 280.5v820h170v-811q0 -115 44 -199t120 -129.5t171 -45.5t170 45.5t118.5 129.5t43.5 199v811z" />
    <glyph glyph-name="Uacute" unicode="&#xda;" horiz-adv-x="1243" 
d="M935 1320h171v-820q0 -163 -65 -280.5t-178.5 -180.5t-259.5 -63t-260.5 63t-179.5 180.5t-65 280.5v820h170v-811q0 -115 44 -199t120 -129.5t171 -45.5t170 45.5t118.5 129.5t43.5 199v811zM524 1376l-62 83l305 251l98 -124z" />
    <glyph glyph-name="Ubreve" unicode="&#x16c;" horiz-adv-x="1243" 
d="M935 1320h171v-820q0 -163 -65 -280.5t-178.5 -180.5t-259.5 -63t-260.5 63t-179.5 180.5t-65 280.5v820h170v-811q0 -115 44 -199t120 -129.5t171 -45.5t170 45.5t118.5 129.5t43.5 199v811zM603 1395q-81 0 -140.5 31t-94 79.5t-41.5 103.5l126 32q5 -29 22.5 -61
t49.5 -54t78 -22t77.5 22t49 54t22.5 61l126 -32q-5 -52 -39.5 -101.5t-94 -81t-141.5 -31.5z" />
    <glyph glyph-name="Ucircumflex" unicode="&#xdb;" horiz-adv-x="1243" 
d="M935 1320h171v-820q0 -163 -65 -280.5t-178.5 -180.5t-259.5 -63t-260.5 63t-179.5 180.5t-65 280.5v820h170v-811q0 -115 44 -199t120 -129.5t171 -45.5t170 45.5t118.5 129.5t43.5 199v811zM379 1404l-76 101l299 219l300 -220l-76 -102l-224 165z" />
    <glyph glyph-name="uni0214" unicode="&#x214;" horiz-adv-x="1243" 
d="M935 1320h171v-820q0 -163 -65 -280.5t-178.5 -180.5t-259.5 -63t-260.5 63t-179.5 180.5t-65 280.5v820h170v-811q0 -115 44 -199t120 -129.5t171 -45.5t170 45.5t118.5 129.5t43.5 199v811zM855 1373l-341 210l98 124l306 -251zM483 1373l-341 210l98 124l305 -251z
" />
    <glyph glyph-name="Udieresis" unicode="&#xdc;" horiz-adv-x="1243" 
d="M935 1320h171v-820q0 -163 -65 -280.5t-178.5 -180.5t-259.5 -63t-260.5 63t-179.5 180.5t-65 280.5v820h170v-811q0 -115 44 -199t120 -129.5t171 -45.5t170 45.5t118.5 129.5t43.5 199v811zM798 1410q-44 0 -75.5 32t-31.5 75t31.5 75.5t75.5 32.5q43 0 75 -32t32 -76
t-32 -75.5t-75 -31.5zM408 1410q-44 0 -75 32t-31 75t31 75.5t75 32.5t75.5 -32t31.5 -76t-31.5 -75.5t-75.5 -31.5z" />
    <glyph glyph-name="uni1EE4" unicode="&#x1ee4;" horiz-adv-x="1243" 
d="M935 1320h171v-820q0 -163 -65 -280.5t-178.5 -180.5t-259.5 -63t-260.5 63t-179.5 180.5t-65 280.5v820h170v-811q0 -115 44 -199t120 -129.5t171 -45.5t170 45.5t118.5 129.5t43.5 199v811zM602 -278q-38 0 -65 28t-27 64q0 38 27 66t65 28t65.5 -28t27.5 -66
t-27.5 -65t-65.5 -27z" />
    <glyph glyph-name="Ugrave" unicode="&#xd9;" horiz-adv-x="1243" 
d="M935 1320h171v-820q0 -163 -65 -280.5t-178.5 -180.5t-259.5 -63t-260.5 63t-179.5 180.5t-65 280.5v820h170v-811q0 -115 44 -199t120 -129.5t171 -45.5t170 45.5t118.5 129.5t43.5 199v811zM663 1376l-341 210l98 124l306 -251z" />
    <glyph glyph-name="uni1EE6" unicode="&#x1ee6;" horiz-adv-x="1243" 
d="M935 1320h171v-820q0 -163 -65 -280.5t-178.5 -180.5t-259.5 -63t-260.5 63t-179.5 180.5t-65 280.5v820h170v-811q0 -115 44 -199t120 -129.5t171 -45.5t170 45.5t118.5 129.5t43.5 199v811zM580 1396l-54 73q26 6 65.5 23.5t71 47t31.5 69.5q0 44 -20 63.5t-50 25
t-61 5.5q-43 0 -92.5 -15.5t-79.5 -30.5v95q18 12 67 29t133 17q57 0 108 -16t83.5 -54.5t32.5 -104.5q0 -51 -24.5 -88t-62 -64t-77 -45t-71.5 -30z" />
    <glyph glyph-name="Uhorn" unicode="&#x1af;" horiz-adv-x="1437" 
d="M935 1320h171v-820q0 -163 -65 -280.5t-178.5 -180.5t-259.5 -63t-260.5 63t-179.5 180.5t-65 280.5v820h170v-811q0 -115 44 -199t120 -129.5t171 -45.5t170 45.5t118.5 129.5t43.5 199v811zM1213 1192q-31 0 -57.5 8.5t-49.5 21.5v98q15 -13 39 -22.5t54 -9.5
q58 0 88 41t30 91q0 44 -6 68.5t-18 52.5h122q8 -14 18 -45.5t10 -87.5q0 -58 -31.5 -107t-83.5 -79t-115 -30z" />
    <glyph glyph-name="uni1EE8" unicode="&#x1ee8;" horiz-adv-x="1437" 
d="M935 1320h171v-820q0 -163 -65 -280.5t-178.5 -180.5t-259.5 -63t-260.5 63t-179.5 180.5t-65 280.5v820h170v-811q0 -115 44 -199t120 -129.5t171 -45.5t170 45.5t118.5 129.5t43.5 199v811zM1213 1192q-31 0 -57.5 8.5t-49.5 21.5v98q15 -13 39 -22.5t54 -9.5
q58 0 88 41t30 91q0 44 -6 68.5t-18 52.5h122q8 -14 18 -45.5t10 -87.5q0 -58 -31.5 -107t-83.5 -79t-115 -30zM479 1433l-61 83l303 251l100 -124z" />
    <glyph glyph-name="uni1EF0" unicode="&#x1ef0;" horiz-adv-x="1437" 
d="M935 1320h171v-820q0 -163 -65 -280.5t-178.5 -180.5t-259.5 -63t-260.5 63t-179.5 180.5t-65 280.5v820h170v-811q0 -115 44 -199t120 -129.5t171 -45.5t170 45.5t118.5 129.5t43.5 199v811zM1213 1192q-31 0 -57.5 8.5t-49.5 21.5v98q15 -13 39 -22.5t54 -9.5
q58 0 88 41t30 91q0 44 -6 68.5t-18 52.5h122q8 -14 18 -45.5t10 -87.5q0 -58 -31.5 -107t-83.5 -79t-115 -30zM603 -304q-38 0 -65 27.5t-27 64.5t27 65t65 28t65.5 -27.5t27.5 -65.5t-27.5 -65t-65.5 -27z" />
    <glyph glyph-name="uni1EEA" unicode="&#x1eea;" horiz-adv-x="1437" 
d="M935 1320h171v-820q0 -163 -65 -280.5t-178.5 -180.5t-259.5 -63t-260.5 63t-179.5 180.5t-65 280.5v820h170v-811q0 -115 44 -199t120 -129.5t171 -45.5t170 45.5t118.5 129.5t43.5 199v811zM1213 1192q-31 0 -57.5 8.5t-49.5 21.5v98q15 -13 39 -22.5t54 -9.5
q58 0 88 41t30 91q0 44 -6 68.5t-18 52.5h122q8 -14 18 -45.5t10 -87.5q0 -58 -31.5 -107t-83.5 -79t-115 -30zM759 1473l-341 209l98 124l306 -251z" />
    <glyph glyph-name="uni1EEC" unicode="&#x1eec;" horiz-adv-x="1437" 
d="M935 1320h171v-820q0 -163 -65 -280.5t-178.5 -180.5t-259.5 -63t-260.5 63t-179.5 180.5t-65 280.5v820h170v-811q0 -115 44 -199t120 -129.5t171 -45.5t170 45.5t118.5 129.5t43.5 199v811zM1213 1192q-31 0 -57.5 8.5t-49.5 21.5v98q15 -13 39 -22.5t54 -9.5
q58 0 88 41t30 91q0 44 -6 68.5t-18 52.5h122q8 -14 18 -45.5t10 -87.5q0 -58 -31.5 -107t-83.5 -79t-115 -30zM580 1371l-54 80q26 6 65.5 27t71 56t31.5 83q0 49 -20 70.5t-50 27.5t-61 6q-43 0 -92.5 -16.5t-79.5 -31.5v105q18 12 67 30t133 18q57 0 108 -17.5
t83.5 -59.5t32.5 -117q0 -58 -24.5 -102t-62 -75.5t-77 -51.5t-71.5 -32z" />
    <glyph glyph-name="uni1EEE" unicode="&#x1eee;" horiz-adv-x="1437" 
d="M935 1320h171v-820q0 -163 -65 -280.5t-178.5 -180.5t-259.5 -63t-260.5 63t-179.5 180.5t-65 280.5v820h170v-811q0 -115 44 -199t120 -129.5t171 -45.5t170 45.5t118.5 129.5t43.5 199v811zM1213 1192q-31 0 -57.5 8.5t-49.5 21.5v98q15 -13 39 -22.5t54 -9.5
q58 0 88 41t30 91q0 44 -6 68.5t-18 52.5h122q8 -14 18 -45.5t10 -87.5q0 -58 -31.5 -107t-83.5 -79t-115 -30zM287 1503q10 46 34.5 94t64 81.5t92.5 33.5q61 0 103 -19t79 -38t82 -19q35 0 56 26t27 50h126q-10 -44 -35.5 -92.5t-65 -82.5t-92.5 -34q-61 0 -104 19t-79 38
t-76 19q-33 0 -55.5 -25.5t-30.5 -50.5h-126z" />
    <glyph glyph-name="Uhungarumlaut" unicode="&#x170;" horiz-adv-x="1243" 
d="M935 1320h171v-820q0 -163 -65 -280.5t-178.5 -180.5t-259.5 -63t-260.5 63t-179.5 180.5t-65 280.5v820h170v-811q0 -115 44 -199t120 -129.5t171 -45.5t170 45.5t118.5 129.5t43.5 199v811zM308 1381l-62 61l268 261l94 -99zM660 1381l-63 61l269 261l94 -99z" />
    <glyph glyph-name="uni0216" unicode="&#x216;" horiz-adv-x="1243" 
d="M935 1320h171v-820q0 -163 -65 -280.5t-178.5 -180.5t-259.5 -63t-260.5 63t-179.5 180.5t-65 280.5v820h170v-811q0 -115 44 -199t120 -129.5t171 -45.5t170 45.5t118.5 129.5t43.5 199v811zM455 1400l-126 31q6 52 40 101.5t93.5 81t140.5 31.5t140 -31t94 -79.5
t41 -103.5l-126 -31q-4 29 -22 60.5t-49.5 53.5t-77.5 22t-77.5 -22t-48.5 -53.5t-22 -60.5z" />
    <glyph glyph-name="Umacron" unicode="&#x16a;" horiz-adv-x="1243" 
d="M935 1320h171v-820q0 -163 -65 -280.5t-178.5 -180.5t-259.5 -63t-260.5 63t-179.5 180.5t-65 280.5v820h170v-811q0 -115 44 -199t120 -129.5t171 -45.5t170 45.5t118.5 129.5t43.5 199v811zM309 1457v122h587v-122h-587z" />
    <glyph glyph-name="Uogonek" unicode="&#x172;" horiz-adv-x="1238" 
d="M935 1320h171v-820q0 -163 -65 -280.5t-178.5 -180.5t-259.5 -63t-260.5 63t-179.5 180.5t-65 280.5v820h170v-811q0 -115 44 -199t120 -129.5t171 -45.5t170 45.5t118.5 129.5t43.5 199v811zM642 -427q-42 0 -87.5 15t-77 53.5t-31.5 107.5q0 50 28.5 104.5t70 104
t79.5 83.5l64 -41q-27 -27 -57 -66.5t-51 -83.5t-21 -84q0 -53 31.5 -72.5t73.5 -19.5q39 0 70 20.5t46 42.5l81 -62q-23 -38 -85 -70t-134 -32z" />
    <glyph glyph-name="Uring" unicode="&#x16e;" horiz-adv-x="1243" 
d="M935 1320h171v-820q0 -163 -65 -280.5t-178.5 -180.5t-259.5 -63t-260.5 63t-179.5 180.5t-65 280.5v820h170v-811q0 -115 44 -199t120 -129.5t171 -45.5t170 45.5t118.5 129.5t43.5 199v811zM603 1371q-86 0 -139 48t-53 123q0 74 56 122.5t136 48.5q81 0 136 -48.5
t55 -122.5q0 -75 -53.5 -123t-137.5 -48zM603 1457q35 0 58.5 22.5t23.5 62.5t-24 62t-58 22q-33 0 -58 -22t-25 -62t25 -62.5t58 -22.5z" />
    <glyph glyph-name="Utilde" unicode="&#x168;" horiz-adv-x="1243" 
d="M935 1320h171v-820q0 -163 -65 -280.5t-178.5 -180.5t-259.5 -63t-260.5 63t-179.5 180.5t-65 280.5v820h170v-811q0 -115 44 -199t120 -129.5t171 -45.5t170 45.5t118.5 129.5t43.5 199v811zM271 1412q10 46 34.5 94t64 81.5t92.5 33.5q61 0 103 -19t79 -38t82 -19
q35 0 56 26t27 50h126q-10 -44 -35.5 -92.5t-65 -82.5t-92.5 -34q-61 0 -104 19t-79 38t-76 19q-33 0 -55.5 -25.5t-30.5 -50.5h-126z" />
    <glyph glyph-name="V" unicode="V" horiz-adv-x="1250" 
d="M702 0h-202l-483 1320h193l391 -1112l393 1112h192z" />
    <glyph glyph-name="W" unicode="W" horiz-adv-x="1648" 
d="M1269 0h-215l-280 1121h33l-281 -1121h-215l-278 1320h195l201 -1097h-3l286 1097h156l286 -1097h-3l202 1097h194z" />
    <glyph glyph-name="Wacute" unicode="&#x1e82;" horiz-adv-x="1648" 
d="M1269 0h-215l-280 1121h33l-281 -1121h-215l-278 1320h195l201 -1097h-3l286 1097h156l286 -1097h-3l202 1097h194zM722 1376l-62 83l305 251l98 -124z" />
    <glyph glyph-name="Wcircumflex" unicode="&#x174;" horiz-adv-x="1648" 
d="M1269 0h-215l-280 1121h33l-281 -1121h-215l-278 1320h195l201 -1097h-3l286 1097h156l286 -1097h-3l202 1097h194zM577 1404l-76 101l299 219l300 -220l-76 -102l-224 165z" />
    <glyph glyph-name="Wdieresis" unicode="&#x1e84;" horiz-adv-x="1648" 
d="M1269 0h-215l-280 1121h33l-281 -1121h-215l-278 1320h195l201 -1097h-3l286 1097h156l286 -1097h-3l202 1097h194zM996 1410q-44 0 -75.5 32t-31.5 75t31.5 75.5t75.5 32.5q43 0 75 -32t32 -76t-32 -75.5t-75 -31.5zM606 1410q-44 0 -75 32t-31 75t31 75.5t75 32.5
t75.5 -32t31.5 -76t-31.5 -75.5t-75.5 -31.5z" />
    <glyph glyph-name="Wgrave" unicode="&#x1e80;" horiz-adv-x="1648" 
d="M1269 0h-215l-280 1121h33l-281 -1121h-215l-278 1320h195l201 -1097h-3l286 1097h156l286 -1097h-3l202 1097h194zM861 1376l-341 210l98 124l306 -251z" />
    <glyph glyph-name="X" unicode="X" horiz-adv-x="1241" 
d="M709 710l481 -710h-220l-378 569l-376 -569h-207l471 710l-425 610h216l326 -477l323 477h209z" />
    <glyph glyph-name="Y" unicode="Y" horiz-adv-x="1106" 
d="M442 475l-443 845h206l323 -646l322 646h206l-442 -845v-475h-172v475z" />
    <glyph glyph-name="Yacute" unicode="&#xdd;" horiz-adv-x="1106" 
d="M442 475l-443 845h206l323 -646l322 646h206l-442 -845v-475h-172v475zM449 1376l-62 83l305 251l98 -124z" />
    <glyph glyph-name="Ycircumflex" unicode="&#x176;" horiz-adv-x="1106" 
d="M442 475l-443 845h206l323 -646l322 646h206l-442 -845v-475h-172v475zM304 1404l-76 101l299 219l300 -220l-76 -102l-224 165z" />
    <glyph glyph-name="Ydieresis" unicode="&#x178;" horiz-adv-x="1106" 
d="M442 475l-443 845h206l323 -646l322 646h206l-442 -845v-475h-172v475zM723 1410q-44 0 -75.5 32t-31.5 75t31.5 75.5t75.5 32.5q43 0 75 -32t32 -76t-32 -75.5t-75 -31.5zM333 1410q-44 0 -75 32t-31 75t31 75.5t75 32.5t75.5 -32t31.5 -76t-31.5 -75.5t-75.5 -31.5z
" />
    <glyph glyph-name="uni1EF4" unicode="&#x1ef4;" horiz-adv-x="1106" 
d="M442 475l-443 845h206l323 -646l322 646h206l-442 -845v-475h-172v475zM527 -278q-38 0 -65 28t-27 64q0 38 27 66t65 28t65.5 -28t27.5 -66t-27.5 -65t-65.5 -27z" />
    <glyph glyph-name="Ygrave" unicode="&#x1ef2;" horiz-adv-x="1106" 
d="M442 475l-443 845h206l323 -646l322 646h206l-442 -845v-475h-172v475zM588 1376l-341 210l98 124l306 -251z" />
    <glyph glyph-name="uni1EF6" unicode="&#x1ef6;" horiz-adv-x="1106" 
d="M442 475l-443 845h206l323 -646l322 646h206l-442 -845v-475h-172v475zM505 1396l-54 73q26 6 65.5 23.5t71 47t31.5 69.5q0 44 -20 63.5t-50 25t-61 5.5q-43 0 -92.5 -15.5t-79.5 -30.5v95q18 12 67 29t133 17q57 0 108 -16t83.5 -54.5t32.5 -104.5q0 -51 -24.5 -88
t-62 -64t-77 -45t-71.5 -30z" />
    <glyph glyph-name="uni0232" unicode="&#x232;" horiz-adv-x="1106" 
d="M442 475l-443 845h206l323 -646l322 646h206l-442 -845v-475h-172v475zM234 1457v122h587v-122h-587z" />
    <glyph glyph-name="uni1EF8" unicode="&#x1ef8;" horiz-adv-x="1106" 
d="M442 475l-443 845h206l323 -646l322 646h206l-442 -845v-475h-172v475zM196 1412q10 46 34.5 94t64 81.5t92.5 33.5q61 0 103 -19t79 -38t82 -19q35 0 56 26t27 50h126q-10 -44 -35.5 -92.5t-65 -82.5t-92.5 -34q-61 0 -104 19t-79 38t-76 19q-33 0 -55.5 -25.5
t-30.5 -50.5h-126z" />
    <glyph glyph-name="Z" unicode="Z" horiz-adv-x="1177" 
d="M132 1320h955l-742 -1165h699v-155h-1005l745 1165h-652v155z" />
    <glyph glyph-name="Zacute" unicode="&#x179;" horiz-adv-x="1177" 
d="M132 1320h955l-742 -1165h699v-155h-1005l745 1165h-652v155zM485 1376l-62 83l305 251l98 -124z" />
    <glyph glyph-name="Zcaron" unicode="&#x17d;" horiz-adv-x="1177" 
d="M132 1320h955l-742 -1165h699v-155h-1005l745 1165h-652v155zM564 1416l-261 191l67 89l194 -141l196 142l65 -89z" />
    <glyph glyph-name="Zdotaccent" unicode="&#x17b;" horiz-adv-x="1177" 
d="M132 1320h955l-742 -1165h699v-155h-1005l745 1165h-652v155zM563 1439q-44 0 -75 32t-31 75t31 75t75 32t75.5 -31.5t31.5 -75.5t-31.5 -75.5t-75.5 -31.5z" />
    <glyph glyph-name="C.ss01" horiz-adv-x="1106" 
d="M980 1111q-24 17 -90.5 45t-192.5 28q-95 0 -180.5 -36t-151.5 -104.5t-104 -165t-38 -217.5q0 -161 63.5 -279t171 -182t239.5 -64q123 0 190 28.5t93 46.5v-175q-35 -22 -112 -41t-171 -19q-211 0 -357 91t-220.5 246t-74.5 348t80.5 347.5t227.5 245t344 90.5
q98 0 168 -15t115 -42v-176z" />
    <glyph glyph-name="Cacute.ss01" horiz-adv-x="1106" 
d="M980 1111q-24 17 -90.5 45t-192.5 28q-95 0 -180.5 -36t-151.5 -104.5t-104 -165t-38 -217.5q0 -161 63.5 -279t171 -182t239.5 -64q123 0 190 28.5t93 46.5v-175q-35 -22 -112 -41t-171 -19q-211 0 -357 91t-220.5 246t-74.5 348t80.5 347.5t227.5 245t344 90.5
q98 0 168 -15t115 -42v-176zM572 1376l-62 83l305 251l98 -124z" />
    <glyph glyph-name="Ccaron.ss01" horiz-adv-x="1106" 
d="M980 1111q-24 17 -90.5 45t-192.5 28q-95 0 -180.5 -36t-151.5 -104.5t-104 -165t-38 -217.5q0 -161 63.5 -279t171 -182t239.5 -64q123 0 190 28.5t93 46.5v-175q-35 -22 -112 -41t-171 -19q-211 0 -357 91t-220.5 246t-74.5 348t80.5 347.5t227.5 245t344 90.5
q98 0 168 -15t115 -42v-176zM651 1416l-261 191l67 89l194 -141l196 142l65 -89z" />
    <glyph glyph-name="Ccedilla.ss01" horiz-adv-x="1106" 
d="M980 1111q-24 17 -90.5 45t-192.5 28q-95 0 -180.5 -36t-151.5 -104.5t-104 -165t-38 -217.5q0 -161 63.5 -279t171 -182t239.5 -64q123 0 190 28.5t93 46.5v-175q-35 -22 -112 -41t-171 -19q-211 0 -357 91t-220.5 246t-74.5 348t80.5 347.5t227.5 245t344 90.5
q98 0 168 -15t115 -42v-176zM647 -425q-73 0 -130.5 22.5t-82.5 43.5l69 81q19 -17 55.5 -34.5t77.5 -17.5q48 0 80.5 21.5t32.5 56.5q0 38 -27.5 56t-69.5 18q-31 0 -56 -4.5t-36 -9.5l-29 17l77 217l78 -32l-46 -128q48 10 101 0.5t90 -41t37 -86.5q0 -59 -32.5 -99
t-83 -60.5t-105.5 -20.5z" />
    <glyph glyph-name="Ccircumflex.ss01" horiz-adv-x="1106" 
d="M980 1111q-24 17 -90.5 45t-192.5 28q-95 0 -180.5 -36t-151.5 -104.5t-104 -165t-38 -217.5q0 -161 63.5 -279t171 -182t239.5 -64q123 0 190 28.5t93 46.5v-175q-35 -22 -112 -41t-171 -19q-211 0 -357 91t-220.5 246t-74.5 348t80.5 347.5t227.5 245t344 90.5
q98 0 168 -15t115 -42v-176zM427 1404l-76 101l299 219l300 -220l-76 -102l-224 165z" />
    <glyph glyph-name="Cdotaccent.ss01" horiz-adv-x="1106" 
d="M980 1111q-24 17 -90.5 45t-192.5 28q-95 0 -180.5 -36t-151.5 -104.5t-104 -165t-38 -217.5q0 -161 63.5 -279t171 -182t239.5 -64q123 0 190 28.5t93 46.5v-175q-35 -22 -112 -41t-171 -19q-211 0 -357 91t-220.5 246t-74.5 348t80.5 347.5t227.5 245t344 90.5
q98 0 168 -15t115 -42v-176zM650 1439q-44 0 -75 32t-31 75t31 75t75 32t75.5 -31.5t31.5 -75.5t-31.5 -75.5t-75.5 -31.5z" />
    <glyph glyph-name="Q.ss01" horiz-adv-x="1413" 
d="M721 461h188l366 -627h-188zM222 661q0 -147 61.5 -265t169.5 -187.5t248 -69.5q141 0 248.5 69.5t168.5 187.5t61 265t-61 264.5t-168.5 186.5t-248.5 69q-140 0 -248 -69t-169.5 -186.5t-61.5 -264.5zM45 661q0 144 49.5 268.5t138.5 217.5t208.5 145t259.5 52
q141 0 260.5 -52t208 -145t137.5 -217.5t49 -268.5q0 -145 -48.5 -269.5t-137 -218t-207.5 -145.5t-262 -52t-263.5 52t-208.5 145.5t-136 218t-48 269.5z" />
    <glyph glyph-name="Q.ss02" horiz-adv-x="1433" 
d="M681 -24q-147 0 -263.5 52t-198.5 145.5t-125.5 218t-43.5 269.5q0 144 47 268.5t132.5 217.5t200.5 145t251 52q137 0 252 -52t199.5 -145t131 -217.5t46.5 -268.5q0 -120 -30.5 -224.5t-83.5 -184.5q39 -18 73 -33.5t67.5 -27.5t66.5 -21l-77 -151q-57 19 -118 47.5
t-119 62.5q-79 -72 -182.5 -112.5t-225.5 -40.5zM681 151q69 0 135.5 21.5t116.5 66.5q-65 49 -121.5 98.5t-98.5 97.5l80 99q25 -26 62.5 -59t85 -68.5t99.5 -68.5q42 65 64.5 148t22.5 175q0 136 -51.5 252t-151 186.5t-243.5 70.5q-143 0 -243 -70.5t-152.5 -186.5
t-52.5 -252t49.5 -252.5t148.5 -187t250 -70.5z" />
    <glyph glyph-name="a" unicode="a" horiz-adv-x="1063" 
d="M765 0v160q-8 -25 -46.5 -69t-105 -79.5t-156.5 -35.5q-114 0 -206.5 54t-147 151.5t-54.5 228.5t54.5 228.5t147 152t206.5 54.5q89 0 154.5 -32t105 -74t46.5 -72v154h172v-821h-170zM221 410q0 -89 39 -154t101.5 -100.5t133.5 -35.5q76 0 136 36t95 101.5t35 152.5
t-35 152.5t-95 102t-136 36.5q-71 0 -133.5 -36t-101.5 -101t-39 -154z" />
    <glyph glyph-name="aacute" unicode="&#xe1;" horiz-adv-x="1063" 
d="M765 0v160q-8 -25 -46.5 -69t-105 -79.5t-156.5 -35.5q-114 0 -206.5 54t-147 151.5t-54.5 228.5t54.5 228.5t147 152t206.5 54.5q89 0 154.5 -32t105 -74t46.5 -72v154h172v-821h-170zM221 410q0 -89 39 -154t101.5 -100.5t133.5 -35.5q76 0 136 36t95 101.5t35 152.5
t-35 152.5t-95 102t-136 36.5q-71 0 -133.5 -36t-101.5 -101t-39 -154zM381 934l-61 83l303 251l100 -124z" />
    <glyph glyph-name="abreve" unicode="&#x103;" horiz-adv-x="1078" 
d="M765 0v160q-8 -25 -46.5 -69t-105 -79.5t-156.5 -35.5q-114 0 -206.5 54t-147 151.5t-54.5 228.5t54.5 228.5t147 152t206.5 54.5q89 0 154.5 -32t105 -74t46.5 -72v154h172v-821h-170zM221 410q0 -89 39 -154t101.5 -100.5t133.5 -35.5q76 0 136 36t95 101.5t35 152.5
t-35 152.5t-95 102t-136 36.5q-71 0 -133.5 -36t-101.5 -101t-39 -154zM505 954q-86 0 -149.5 33t-101 85t-44.5 112l137 34q5 -31 23.5 -65t52 -57t82.5 -23q48 0 81.5 23t52 57t22.5 65l138 -34q-6 -57 -43 -110t-100.5 -86.5t-150.5 -33.5z" />
    <glyph glyph-name="uni1EAF" unicode="&#x1eaf;" horiz-adv-x="1063" 
d="M765 0v160q-8 -25 -46.5 -69t-105 -79.5t-156.5 -35.5q-114 0 -206.5 54t-147 151.5t-54.5 228.5t54.5 228.5t147 152t206.5 54.5q89 0 154.5 -32t105 -74t46.5 -72v154h172v-821h-170zM221 410q0 -89 39 -154t101.5 -100.5t133.5 -35.5q76 0 136 36t95 101.5t35 152.5
t-35 152.5t-95 102t-136 36.5q-71 0 -133.5 -36t-101.5 -101t-39 -154zM504 954q-85 0 -149 33t-101.5 85t-43.5 112l137 34q5 -31 23.5 -65t52 -57t81.5 -23q49 0 82 23t52 57t23 65l138 -34q-7 -57 -43.5 -110t-100 -86.5t-151.5 -33.5zM424 1256l-62 83l305 251l98 -124z
" />
    <glyph glyph-name="uni1EB7" unicode="&#x1eb7;" horiz-adv-x="1063" 
d="M765 0v160q-8 -25 -46.5 -69t-105 -79.5t-156.5 -35.5q-114 0 -206.5 54t-147 151.5t-54.5 228.5t54.5 228.5t147 152t206.5 54.5q89 0 154.5 -32t105 -74t46.5 -72v154h172v-821h-170zM221 410q0 -89 39 -154t101.5 -100.5t133.5 -35.5q76 0 136 36t95 101.5t35 152.5
t-35 152.5t-95 102t-136 36.5q-71 0 -133.5 -36t-101.5 -101t-39 -154zM518 -304q-38 0 -65 27.5t-27 64.5t27 65t65 28t65.5 -27.5t27.5 -65.5t-27.5 -65t-65.5 -27zM505 954q-86 0 -149.5 33t-101 85t-44.5 112l137 34q5 -31 23.5 -65t52 -57t82.5 -23q48 0 81.5 23t52 57
t22.5 65l138 -34q-6 -57 -43 -110t-100.5 -86.5t-150.5 -33.5z" />
    <glyph glyph-name="uni1EB1" unicode="&#x1eb1;" horiz-adv-x="1063" 
d="M765 0v160q-8 -25 -46.5 -69t-105 -79.5t-156.5 -35.5q-114 0 -206.5 54t-147 151.5t-54.5 228.5t54.5 228.5t147 152t206.5 54.5q89 0 154.5 -32t105 -74t46.5 -72v154h172v-821h-170zM221 410q0 -89 39 -154t101.5 -100.5t133.5 -35.5q76 0 136 36t95 101.5t35 152.5
t-35 152.5t-95 102t-136 36.5q-71 0 -133.5 -36t-101.5 -101t-39 -154zM586 1269l-341 210l98 124l305 -251zM504 954q-86 0 -150 33.5t-101 85.5t-43 111l136 34q5 -31 23.5 -65t52 -57t82.5 -23t82 23t51.5 57t22.5 65l139 -34q-7 -58 -44 -111t-101 -86t-150 -33z" />
    <glyph glyph-name="uni1EB3" unicode="&#x1eb3;" horiz-adv-x="1063" 
d="M765 0v160q-8 -25 -46.5 -69t-105 -79.5t-156.5 -35.5q-114 0 -206.5 54t-147 151.5t-54.5 228.5t54.5 228.5t147 152t206.5 54.5q89 0 154.5 -32t105 -74t46.5 -72v154h172v-821h-170zM221 410q0 -89 39 -154t101.5 -100.5t133.5 -35.5q76 0 136 36t95 101.5t35 152.5
t-35 152.5t-95 102t-136 36.5q-71 0 -133.5 -36t-101.5 -101t-39 -154zM481 1221l-54 80q26 7 65.5 27.5t71 55.5t31.5 84t-20 70.5t-50 27t-61 5.5q-43 0 -92.5 -16t-79.5 -31v105q18 12 67 30t133 18q57 0 108 -17.5t83.5 -60t32.5 -116.5q0 -59 -24.5 -102.5t-62 -75
t-77 -51.5t-71.5 -33zM504 954q-85 0 -149 33t-101.5 85t-43.5 112l137 34q5 -31 23.5 -65t52 -57t81.5 -23q49 0 82 23t52 57t23 65l138 -34q-7 -57 -43.5 -110t-100 -86.5t-151.5 -33.5z" />
    <glyph glyph-name="uni1EB5" unicode="&#x1eb5;" horiz-adv-x="1063" 
d="M765 0v160q-8 -25 -46.5 -69t-105 -79.5t-156.5 -35.5q-114 0 -206.5 54t-147 151.5t-54.5 228.5t54.5 228.5t147 152t206.5 54.5q89 0 154.5 -32t105 -74t46.5 -72v154h172v-821h-170zM221 410q0 -89 39 -154t101.5 -100.5t133.5 -35.5q76 0 136 36t95 101.5t35 152.5
t-35 152.5t-95 102t-136 36.5q-71 0 -133.5 -36t-101.5 -101t-39 -154zM188 1331q10 46 34.5 94t64 81.5t92.5 33.5q61 0 103 -19t79 -38t82 -19q35 0 53.5 22.5t29.5 53.5h126q-9 -40 -34.5 -89t-65.5 -84.5t-93 -35.5q-61 0 -104 19t-79 38t-76 19q-33 0 -55.5 -25.5
t-30.5 -50.5h-126zM504 954q-85 0 -149 33t-101.5 85t-43.5 112l137 34q5 -31 23.5 -65t52 -57t81.5 -23q49 0 82 23t52 57t23 65l138 -34q-7 -57 -43.5 -110t-100 -86.5t-151.5 -33.5z" />
    <glyph glyph-name="uni01CE" unicode="&#x1ce;" horiz-adv-x="1063" 
d="M765 0v160q-8 -25 -46.5 -69t-105 -79.5t-156.5 -35.5q-114 0 -206.5 54t-147 151.5t-54.5 228.5t54.5 228.5t147 152t206.5 54.5q89 0 154.5 -32t105 -74t46.5 -72v154h172v-821h-170zM221 410q0 -89 39 -154t101.5 -100.5t133.5 -35.5q76 0 136 36t95 101.5t35 152.5
t-35 152.5t-95 102t-136 36.5q-71 0 -133.5 -36t-101.5 -101t-39 -154zM521 961l-299 219l76 102l223 -162l224 163l76 -102z" />
    <glyph glyph-name="acircumflex" unicode="&#xe2;" horiz-adv-x="1063" 
d="M765 0v160q-8 -25 -46.5 -69t-105 -79.5t-156.5 -35.5q-114 0 -206.5 54t-147 151.5t-54.5 228.5t54.5 228.5t147 152t206.5 54.5q89 0 154.5 -32t105 -74t46.5 -72v154h172v-821h-170zM221 410q0 -89 39 -154t101.5 -100.5t133.5 -35.5q76 0 136 36t95 101.5t35 152.5
t-35 152.5t-95 102t-136 36.5q-71 0 -133.5 -36t-101.5 -101t-39 -154zM729 915l-224 164l-223 -163l-76 101l299 219l300 -219z" />
    <glyph glyph-name="uni1EA5" unicode="&#x1ea5;" horiz-adv-x="1063" 
d="M765 0v160q-8 -25 -46.5 -69t-105 -79.5t-156.5 -35.5q-114 0 -206.5 54t-147 151.5t-54.5 228.5t54.5 228.5t147 152t206.5 54.5q89 0 154.5 -32t105 -74t46.5 -72v154h172v-821h-170zM221 410q0 -89 39 -154t101.5 -100.5t133.5 -35.5q76 0 136 36t95 101.5t35 152.5
t-35 152.5t-95 102t-136 36.5q-71 0 -133.5 -36t-101.5 -101t-39 -154zM729 909l-224 164l-223 -163l-76 102l299 219l300 -220zM721 1173l-61 83l304 251l99 -124z" />
    <glyph glyph-name="uni1EAD" unicode="&#x1ead;" horiz-adv-x="1063" 
d="M765 0v160q-8 -25 -46.5 -69t-105 -79.5t-156.5 -35.5q-114 0 -206.5 54t-147 151.5t-54.5 228.5t54.5 228.5t147 152t206.5 54.5q89 0 154.5 -32t105 -74t46.5 -72v154h172v-821h-170zM221 410q0 -89 39 -154t101.5 -100.5t133.5 -35.5q76 0 136 36t95 101.5t35 152.5
t-35 152.5t-95 102t-136 36.5q-71 0 -133.5 -36t-101.5 -101t-39 -154zM518 -304q-38 0 -65 27.5t-27 64.5t27 65t65 28t65.5 -27.5t27.5 -65.5t-27.5 -65t-65.5 -27zM729 915l-224 164l-223 -163l-76 101l299 219l300 -219z" />
    <glyph glyph-name="uni1EA7" unicode="&#x1ea7;" horiz-adv-x="1063" 
d="M765 0v160q-8 -25 -46.5 -69t-105 -79.5t-156.5 -35.5q-114 0 -206.5 54t-147 151.5t-54.5 228.5t54.5 228.5t147 152t206.5 54.5q89 0 154.5 -32t105 -74t46.5 -72v154h172v-821h-170zM221 410q0 -89 39 -154t101.5 -100.5t133.5 -35.5q76 0 136 36t95 101.5t35 152.5
t-35 152.5t-95 102t-136 36.5q-71 0 -133.5 -36t-101.5 -101t-39 -154zM732 911l-224 164l-223 -163l-76 101l299 219l300 -219zM881 1147l-341 210l98 124l305 -251z" />
    <glyph glyph-name="uni1EA9" unicode="&#x1ea9;" horiz-adv-x="1063" 
d="M765 0v160q-8 -25 -46.5 -69t-105 -79.5t-156.5 -35.5q-114 0 -206.5 54t-147 151.5t-54.5 228.5t54.5 228.5t147 152t206.5 54.5q89 0 154.5 -32t105 -74t46.5 -72v154h172v-821h-170zM221 410q0 -89 39 -154t101.5 -100.5t133.5 -35.5q76 0 136 36t95 101.5t35 152.5
t-35 152.5t-95 102t-136 36.5q-71 0 -133.5 -36t-101.5 -101t-39 -154zM694 1165l-54 80q26 6 65.5 27t71 56t31.5 83q0 49 -20 70.5t-50 27.5t-61 6q-43 0 -92.5 -16.5t-79.5 -31.5v105q18 12 67 30t133 18q57 0 108 -17.5t83.5 -59.5t32.5 -117q0 -58 -24.5 -102
t-62 -75.5t-77 -51.5t-71.5 -32zM730 909l-224 164l-223 -163l-76 102l299 219l300 -220z" />
    <glyph glyph-name="uni1EAB" unicode="&#x1eab;" horiz-adv-x="1063" 
d="M765 0v160q-8 -25 -46.5 -69t-105 -79.5t-156.5 -35.5q-114 0 -206.5 54t-147 151.5t-54.5 228.5t54.5 228.5t147 152t206.5 54.5q89 0 154.5 -32t105 -74t46.5 -72v154h172v-821h-170zM221 410q0 -89 39 -154t101.5 -100.5t133.5 -35.5q76 0 136 36t95 101.5t35 152.5
t-35 152.5t-95 102t-136 36.5q-71 0 -133.5 -36t-101.5 -101t-39 -154zM179 1271q10 45 34.5 93t64 82t92.5 34q61 0 103 -19t79 -38t82 -19q35 0 56 26t27 50h126q-10 -45 -35.5 -93.5t-65 -82t-92.5 -33.5q-61 0 -104 19t-79 37.5t-76 18.5q-33 0 -55.5 -25.5t-30.5 -49.5
h-126zM726 909l-224 164l-223 -163l-76 102l299 219l300 -220z" />
    <glyph glyph-name="uni0201" unicode="&#x201;" horiz-adv-x="1063" 
d="M765 0v160q-8 -25 -46.5 -69t-105 -79.5t-156.5 -35.5q-114 0 -206.5 54t-147 151.5t-54.5 228.5t54.5 228.5t147 152t206.5 54.5q89 0 154.5 -32t105 -74t46.5 -72v154h172v-821h-170zM221 410q0 -89 39 -154t101.5 -100.5t133.5 -35.5q76 0 136 36t95 101.5t35 152.5
t-35 152.5t-95 102t-136 36.5q-71 0 -133.5 -36t-101.5 -101t-39 -154zM751 974l-341 209l98 124l305 -251zM378 974l-341 209l98 124l306 -251z" />
    <glyph glyph-name="adieresis" unicode="&#xe4;" horiz-adv-x="1063" 
d="M765 0v160q-8 -25 -46.5 -69t-105 -79.5t-156.5 -35.5q-114 0 -206.5 54t-147 151.5t-54.5 228.5t54.5 228.5t147 152t206.5 54.5q89 0 154.5 -32t105 -74t46.5 -72v154h172v-821h-170zM221 410q0 -89 39 -154t101.5 -100.5t133.5 -35.5q76 0 136 36t95 101.5t35 152.5
t-35 152.5t-95 102t-136 36.5q-71 0 -133.5 -36t-101.5 -101t-39 -154zM714 992q-45 0 -76 32t-31 75t31 75.5t76 32.5q43 0 75 -32t32 -76t-32 -75.5t-75 -31.5zM324 992q-44 0 -75.5 32t-31.5 75t31.5 75.5t75.5 32.5q43 0 75 -32t32 -76t-32 -75.5t-75 -31.5z" />
    <glyph glyph-name="uni1EA1" unicode="&#x1ea1;" horiz-adv-x="1063" 
d="M765 0v160q-8 -25 -46.5 -69t-105 -79.5t-156.5 -35.5q-114 0 -206.5 54t-147 151.5t-54.5 228.5t54.5 228.5t147 152t206.5 54.5q89 0 154.5 -32t105 -74t46.5 -72v154h172v-821h-170zM221 410q0 -89 39 -154t101.5 -100.5t133.5 -35.5q76 0 136 36t95 101.5t35 152.5
t-35 152.5t-95 102t-136 36.5q-71 0 -133.5 -36t-101.5 -101t-39 -154zM518 -304q-38 0 -65 27.5t-27 64.5t27 65t65 28t65.5 -27.5t27.5 -65.5t-27.5 -65t-65.5 -27z" />
    <glyph glyph-name="agrave" unicode="&#xe0;" horiz-adv-x="1063" 
d="M765 0v160q-8 -25 -46.5 -69t-105 -79.5t-156.5 -35.5q-114 0 -206.5 54t-147 151.5t-54.5 228.5t54.5 228.5t147 152t206.5 54.5q89 0 154.5 -32t105 -74t46.5 -72v154h172v-821h-170zM221 410q0 -89 39 -154t101.5 -100.5t133.5 -35.5q76 0 136 36t95 101.5t35 152.5
t-35 152.5t-95 102t-136 36.5q-71 0 -133.5 -36t-101.5 -101t-39 -154zM661 974l-341 209l98 124l306 -251z" />
    <glyph glyph-name="uni1EA3" unicode="&#x1ea3;" horiz-adv-x="1063" 
d="M765 0v160q-8 -25 -46.5 -69t-105 -79.5t-156.5 -35.5q-114 0 -206.5 54t-147 151.5t-54.5 228.5t54.5 228.5t147 152t206.5 54.5q89 0 154.5 -32t105 -74t46.5 -72v154h172v-821h-170zM221 410q0 -89 39 -154t101.5 -100.5t133.5 -35.5q76 0 136 36t95 101.5t35 152.5
t-35 152.5t-95 102t-136 36.5q-71 0 -133.5 -36t-101.5 -101t-39 -154zM481 872l-54 80q26 6 65.5 27t71 56t31.5 83q0 49 -20 70.5t-50 27.5t-61 6q-43 0 -92.5 -16.5t-79.5 -31.5v105q18 12 67 30t133 18q57 0 108 -17.5t83.5 -59.5t32.5 -117q0 -58 -24.5 -102t-62 -75.5
t-77 -51.5t-71.5 -32z" />
    <glyph glyph-name="uni0203" unicode="&#x203;" horiz-adv-x="1063" 
d="M765 0v160q-8 -25 -46.5 -69t-105 -79.5t-156.5 -35.5q-114 0 -206.5 54t-147 151.5t-54.5 228.5t54.5 228.5t147 152t206.5 54.5q89 0 154.5 -32t105 -74t46.5 -72v154h172v-821h-170zM221 410q0 -89 39 -154t101.5 -100.5t133.5 -35.5q76 0 136 36t95 101.5t35 152.5
t-35 152.5t-95 102t-136 36.5q-71 0 -133.5 -36t-101.5 -101t-39 -154zM347 951l-138 34q7 57 43.5 110t100.5 86.5t151 33.5q86 0 149.5 -33t101 -85t43.5 -112l-137 -34q-4 32 -23 65.5t-52 56.5t-82 23t-82 -23t-51.5 -56.5t-23.5 -65.5z" />
    <glyph glyph-name="amacron" unicode="&#x101;" horiz-adv-x="1078" 
d="M765 0v160q-8 -25 -46.5 -69t-105 -79.5t-156.5 -35.5q-114 0 -206.5 54t-147 151.5t-54.5 228.5t54.5 228.5t147 152t206.5 54.5q89 0 154.5 -32t105 -74t46.5 -72v154h172v-821h-170zM221 410q0 -89 39 -154t101.5 -100.5t133.5 -35.5q76 0 136 36t95 101.5t35 152.5
t-35 152.5t-95 102t-136 36.5q-71 0 -133.5 -36t-101.5 -101t-39 -154zM226 1049v122h587v-122h-587z" />
    <glyph glyph-name="aogonek" unicode="&#x105;" horiz-adv-x="1078" 
d="M765 0v160q-8 -25 -46.5 -69t-105 -79.5t-156.5 -35.5q-114 0 -206.5 54t-147 151.5t-54.5 228.5t54.5 228.5t147 152t206.5 54.5q89 0 154.5 -32t105 -74t46.5 -72v154h172v-821h-170zM221 410q0 -89 39 -154t101.5 -100.5t133.5 -35.5q76 0 136 36t95 101.5t35 152.5
t-35 152.5t-95 102t-136 36.5q-71 0 -133.5 -36t-101.5 -101t-39 -154zM845 -427q-42 0 -87.5 15t-77 53.5t-31.5 107.5q0 50 28.5 104.5t70 104t79.5 83.5l64 -41q-27 -27 -57 -66.5t-51 -83.5t-21 -84q0 -53 31.5 -72.5t73.5 -19.5q39 0 70 20.5t46 42.5l81 -62
q-23 -38 -85 -70t-134 -32z" />
    <glyph glyph-name="aring" unicode="&#xe5;" horiz-adv-x="1063" 
d="M765 0v160q-8 -25 -46.5 -69t-105 -79.5t-156.5 -35.5q-114 0 -206.5 54t-147 151.5t-54.5 228.5t54.5 228.5t147 152t206.5 54.5q89 0 154.5 -32t105 -74t46.5 -72v154h172v-821h-170zM221 410q0 -89 39 -154t101.5 -100.5t133.5 -35.5q76 0 136 36t95 101.5t35 152.5
t-35 152.5t-95 102t-136 36.5q-71 0 -133.5 -36t-101.5 -101t-39 -154zM504 925q-92 0 -148.5 51t-56.5 132q0 53 27.5 94t74 65t103.5 24q58 0 104 -24t73.5 -65t27.5 -94q0 -81 -57.5 -132t-147.5 -51zM504 1019q36 0 61 23.5t25 65.5q0 41 -25 64t-61 23q-34 0 -60 -23
t-26 -64q0 -42 25.5 -65.5t60.5 -23.5z" />
    <glyph glyph-name="aringacute" unicode="&#x1fb;" horiz-adv-x="1063" 
d="M765 0v160q-8 -25 -46.5 -69t-105 -79.5t-156.5 -35.5q-114 0 -206.5 54t-147 151.5t-54.5 228.5t54.5 228.5t147 152t206.5 54.5q89 0 154.5 -32t105 -74t46.5 -72v154h172v-821h-170zM221 410q0 -89 39 -154t101.5 -100.5t133.5 -35.5q76 0 136 36t95 101.5t35 152.5
t-35 152.5t-95 102t-136 36.5q-71 0 -133.5 -36t-101.5 -101t-39 -154zM504 925q-92 0 -148.5 51t-56.5 132q0 53 27.5 94t74 65t103.5 24q58 0 104 -24t73.5 -65t27.5 -94q0 -81 -57.5 -132t-147.5 -51zM504 1019q36 0 61 23.5t25 65.5q0 41 -25 64t-61 23q-34 0 -60 -23
t-26 -64q0 -42 25.5 -65.5t60.5 -23.5zM381 1303l-61 83l303 251l100 -124z" />
    <glyph glyph-name="atilde" unicode="&#xe3;" horiz-adv-x="1063" 
d="M765 0v160q-8 -25 -46.5 -69t-105 -79.5t-156.5 -35.5q-114 0 -206.5 54t-147 151.5t-54.5 228.5t54.5 228.5t147 152t206.5 54.5q89 0 154.5 -32t105 -74t46.5 -72v154h172v-821h-170zM221 410q0 -89 39 -154t101.5 -100.5t133.5 -35.5q76 0 136 36t95 101.5t35 152.5
t-35 152.5t-95 102t-136 36.5q-71 0 -133.5 -36t-101.5 -101t-39 -154zM188 1004q10 46 34.5 94t64 81.5t92.5 33.5q61 0 103 -19t79 -38t82 -19q35 0 56 26t27 50h126q-10 -44 -35.5 -92.5t-65 -82.5t-92.5 -34q-61 0 -104 19t-79 38t-76 19q-33 0 -55.5 -25.5t-30.5 -50.5
h-126z" />
    <glyph glyph-name="ae" unicode="&#xe6;" horiz-adv-x="1487" 
d="M372 -24q-85 0 -155.5 30.5t-112 92.5t-41.5 154q0 77 43.5 136t117 93t163.5 34q69 0 118 -14.5t79 -33t39 -28.5v38q0 67 -20 112t-53.5 72.5t-74 39.5t-81.5 12q-80 0 -142 -29t-89 -56l-84 122q34 30 120 62t206 32q85 0 148 -28.5t103 -71.5t57 -88q19 42 63 85.5
t107 73t136 29.5q114 0 200 -48t133.5 -144t47.5 -243q0 -9 -1 -14.5t-1 -13.5h-607q0 -90 31 -150.5t85 -90t123 -29.5q62 0 111.5 24.5t84 56.5t49.5 53l106 -98q-31 -36 -81.5 -76t-121 -68t-159.5 -28q-72 0 -137 23.5t-113.5 62.5t-74.5 85q-13 -30 -56 -70.5
t-110.5 -70.5t-155.5 -30zM393 90q59 -1 104.5 24.5t72 65t26.5 80.5q0 69 -54 110.5t-133 41.5q-46 0 -91 -18.5t-74.5 -54.5t-29.5 -87q0 -69 51.5 -115t127.5 -47zM799 485h438q-2 25 -10.5 65.5t-30.5 81.5t-62.5 69t-106.5 28q-100 0 -159.5 -67.5t-68.5 -176.5z" />
    <glyph glyph-name="aeacute" unicode="&#x1fd;" horiz-adv-x="1487" 
d="M372 -24q-85 0 -155.5 30.5t-112 92.5t-41.5 154q0 77 43.5 136t117 93t163.5 34q69 0 118 -14.5t79 -33t39 -28.5v38q0 67 -20 112t-53.5 72.5t-74 39.5t-81.5 12q-80 0 -142 -29t-89 -56l-84 122q34 30 120 62t206 32q85 0 148 -28.5t103 -71.5t57 -88q19 42 63 85.5
t107 73t136 29.5q114 0 200 -48t133.5 -144t47.5 -243q0 -9 -1 -14.5t-1 -13.5h-607q0 -90 31 -150.5t85 -90t123 -29.5q62 0 111.5 24.5t84 56.5t49.5 53l106 -98q-31 -36 -81.5 -76t-121 -68t-159.5 -28q-72 0 -137 23.5t-113.5 62.5t-74.5 85q-13 -30 -56 -70.5
t-110.5 -70.5t-155.5 -30zM393 90q59 -1 104.5 24.5t72 65t26.5 80.5q0 69 -54 110.5t-133 41.5q-46 0 -91 -18.5t-74.5 -54.5t-29.5 -87q0 -69 51.5 -115t127.5 -47zM799 485h438q-2 25 -10.5 65.5t-30.5 81.5t-62.5 69t-106.5 28q-100 0 -159.5 -67.5t-68.5 -176.5z
M613 934l-61 83l303 251l100 -124z" />
    <glyph glyph-name="b" unicode="b" horiz-adv-x="1048" 
d="M101 0v1376h176v-709q6 31 47 73t110 73.5t159 31.5q115 0 204 -54.5t140.5 -152t51.5 -228.5t-51.5 -228.5t-140.5 -151.5t-204 -54q-85 0 -153.5 32t-111.5 75t-54 77v-160h-173zM816 410q0 89 -36 154t-95.5 101t-130.5 36q-77 0 -140 -36.5t-100 -102t-37 -152.5
t37 -152.5t100 -101.5t140 -36q71 0 130.5 35.5t95.5 100.5t36 154z" />
    <glyph glyph-name="c" unicode="c" horiz-adv-x="830" 
d="M492 120q78 0 126 25t60 36l85 -125q-10 -9 -47.5 -28.5t-96 -35.5t-132.5 -16q-113 0 -210 50.5t-156.5 147.5t-59.5 237q0 141 59.5 237.5t156.5 146.5t210 50q73 0 130 -17.5t94 -38.5t49 -32l-86 -125q-8 8 -30.5 24.5t-60.5 30.5t-91 14q-64 0 -124.5 -34.5
t-99.5 -99.5t-39 -156t39 -156.5t99.5 -100t124.5 -34.5z" />
    <glyph glyph-name="cacute" unicode="&#x107;" horiz-adv-x="814" 
d="M492 120q78 0 126 25t60 36l85 -125q-10 -9 -47.5 -28.5t-96 -35.5t-132.5 -16q-113 0 -210 50.5t-156.5 147.5t-59.5 237q0 141 59.5 237.5t156.5 146.5t210 50q73 0 130 -17.5t94 -38.5t49 -32l-86 -125q-8 8 -30.5 24.5t-60.5 30.5t-91 14q-64 0 -124.5 -34.5
t-99.5 -99.5t-39 -156t39 -156.5t99.5 -100t124.5 -34.5zM387 974l-61 82l303 251l100 -124z" />
    <glyph glyph-name="ccaron" unicode="&#x10d;" horiz-adv-x="814" 
d="M492 120q78 0 126 25t60 36l85 -125q-10 -9 -47.5 -28.5t-96 -35.5t-132.5 -16q-113 0 -210 50.5t-156.5 147.5t-59.5 237q0 141 59.5 237.5t156.5 146.5t210 50q73 0 130 -17.5t94 -38.5t49 -32l-86 -125q-8 8 -30.5 24.5t-60.5 30.5t-91 14q-64 0 -124.5 -34.5
t-99.5 -99.5t-39 -156t39 -156.5t99.5 -100t124.5 -34.5zM500 961l-299 219l76 102l223 -162l224 163l76 -102z" />
    <glyph glyph-name="ccedilla" unicode="&#xe7;" horiz-adv-x="814" 
d="M492 120q78 0 126 25t60 36l85 -125q-10 -9 -47.5 -28.5t-96 -35.5t-132.5 -16q-113 0 -210 50.5t-156.5 147.5t-59.5 237q0 141 59.5 237.5t156.5 146.5t210 50q73 0 130 -17.5t94 -38.5t49 -32l-86 -125q-8 8 -30.5 24.5t-60.5 30.5t-91 14q-64 0 -124.5 -34.5
t-99.5 -99.5t-39 -156t39 -156.5t99.5 -100t124.5 -34.5zM403 -425q-73 0 -130.5 22.5t-82.5 43.5l69 81q19 -17 55.5 -34.5t77.5 -17.5q48 0 80.5 21.5t32.5 56.5q0 38 -27.5 56t-69.5 18q-31 0 -56 -4.5t-36 -9.5l-29 17l77 217l78 -32l-46 -128q48 10 101 0.5t90 -41
t37 -86.5q0 -59 -32.5 -99t-83 -60.5t-105.5 -20.5z" />
    <glyph glyph-name="ccircumflex" unicode="&#x109;" horiz-adv-x="830" 
d="M492 120q78 0 126 25t60 36l85 -125q-10 -9 -47.5 -28.5t-96 -35.5t-132.5 -16q-113 0 -210 50.5t-156.5 147.5t-59.5 237q0 141 59.5 237.5t156.5 146.5t210 50q73 0 130 -17.5t94 -38.5t49 -32l-86 -125q-8 8 -30.5 24.5t-60.5 30.5t-91 14q-64 0 -124.5 -34.5
t-99.5 -99.5t-39 -156t39 -156.5t99.5 -100t124.5 -34.5zM708 915l-224 164l-223 -163l-76 101l299 219l300 -219z" />
    <glyph glyph-name="cdotaccent" unicode="&#x10b;" horiz-adv-x="814" 
d="M492 120q78 0 126 25t60 36l85 -125q-10 -9 -47.5 -28.5t-96 -35.5t-132.5 -16q-113 0 -210 50.5t-156.5 147.5t-59.5 237q0 141 59.5 237.5t156.5 146.5t210 50q73 0 130 -17.5t94 -38.5t49 -32l-86 -125q-8 8 -30.5 24.5t-60.5 30.5t-91 14q-64 0 -124.5 -34.5
t-99.5 -99.5t-39 -156t39 -156.5t99.5 -100t124.5 -34.5zM500 1011q-44 0 -75 32t-31 75t31 75.5t75 32.5t75.5 -32t31.5 -76t-31.5 -75.5t-75.5 -31.5z" />
    <glyph glyph-name="d" unicode="d" horiz-adv-x="1048" 
d="M467 -24q-113 0 -202.5 54t-141 151.5t-51.5 228.5t51.5 228.5t141 152t202.5 54.5q91 0 160 -31.5t110 -73.5t47 -73v709h175v-1376h-172v160q-11 -34 -54.5 -77t-111.5 -75t-154 -32zM507 120q76 0 139 36t100.5 101.5t37.5 152.5t-37.5 152.5t-100.5 102t-139 36.5
q-70 0 -130 -36t-96.5 -101t-36.5 -154t36.5 -154t96.5 -100.5t130 -35.5z" />
    <glyph glyph-name="eth" unicode="&#xf0;" horiz-adv-x="1091" 
d="M80 410q0 105 36.5 186t98 136.5t138.5 84t158 28.5q86 0 142 -18.5t87 -41.5t43 -36q-16 56 -60 117.5t-102.5 116.5t-120.5 89l-154 -161l-88 87l123 124q-28 13 -65.5 27.5t-73 25.5t-55.5 15l45 140q36 -8 83 -23.5t94.5 -34t83.5 -35.5l128 133l94 -88l-114 -106
q110 -66 200 -164.5t143.5 -239t53.5 -333.5q0 -135 -55.5 -239.5t-157.5 -164t-243 -59.5q-143 0 -246.5 55.5t-159.5 153.5t-56 225zM251 410q0 -82 35.5 -148t100 -104t152.5 -38q97 0 160.5 38.5t95 104t31.5 147.5q0 144 -74 217t-213 73q-129 0 -208.5 -78.5
t-79.5 -211.5z" />
    <glyph glyph-name="dcaron" unicode="&#x10f;" horiz-adv-x="1131" 
d="M1131 1064l-44 44q31 15 66 46t45 69q-14 -7 -34 -7q-34 0 -59 25.5t-25 63.5q0 42 27.5 69t68.5 27t70 -29t29 -78t-20 -94t-53 -80.5t-71 -55.5zM467 -24q-113 0 -202.5 54t-141 151.5t-51.5 228.5t51.5 228.5t141 152t202.5 54.5q91 0 160 -31.5t110 -73.5t47 -73v709
h175v-1376h-172v160q-11 -34 -54.5 -77t-111.5 -75t-154 -32zM507 120q76 0 139 36t100.5 101.5t37.5 152.5t-37.5 152.5t-100.5 102t-139 36.5q-70 0 -130 -36t-96.5 -101t-36.5 -154t36.5 -154t96.5 -100.5t130 -35.5z" />
    <glyph glyph-name="dcroat" unicode="&#x111;" horiz-adv-x="1048" 
d="M560 1027v116h491v-116h-491zM467 -24q-113 0 -202.5 54t-141 151.5t-51.5 228.5t51.5 228.5t141 152t202.5 54.5q91 0 160 -31.5t110 -73.5t47 -73v709h175v-1376h-172v160q-11 -34 -54.5 -77t-111.5 -75t-154 -32zM507 120q76 0 139 36t100.5 101.5t37.5 152.5
t-37.5 152.5t-100.5 102t-139 36.5q-70 0 -130 -36t-96.5 -101t-36.5 -154t36.5 -154t96.5 -100.5t130 -35.5z" />
    <glyph glyph-name="uni01C6" unicode="&#x1c6;" horiz-adv-x="1890" 
d="M467 -24q-113 0 -202.5 54t-141 151.5t-51.5 228.5t51.5 228.5t141 152t202.5 54.5q91 0 160 -31.5t110 -73.5t47 -73v709h175v-1376h-172v160q-11 -34 -54.5 -77t-111.5 -75t-154 -32zM507 120q76 0 139 36t100.5 101.5t37.5 152.5t-37.5 152.5t-100.5 102t-139 36.5
q-70 0 -130 -36t-96.5 -101t-36.5 -154t36.5 -154t96.5 -100.5t130 -35.5zM1121 821h716l-491 -689h471v-132h-752l491 690h-435v131zM1469 961l-299 219l76 102l223 -162l224 163l76 -102z" />
    <glyph glyph-name="e" unicode="e" horiz-adv-x="953" 
d="M214 375q1 -74 32 -135t92.5 -97t151.5 -36q76 0 129.5 22.5t87.5 54t49 56.5l85 -105q-33 -48 -80.5 -84t-115.5 -55.5t-166 -19.5q-132 0 -228.5 56.5t-148.5 157t-52 230.5q0 120 49 216.5t142.5 152.5t225.5 56q121 0 210.5 -50.5t139 -142.5t49.5 -220
q0 -8 -1 -28.5t-2 -28.5h-649zM700 506q-1 41 -23.5 90t-72.5 84t-135 35q-88 0 -141.5 -34t-78.5 -82.5t-29 -92.5h480z" />
    <glyph glyph-name="eacute" unicode="&#xe9;" horiz-adv-x="955" 
d="M214 375q1 -74 32 -135t92.5 -97t151.5 -36q76 0 129.5 22.5t87.5 54t49 56.5l85 -105q-33 -48 -80.5 -84t-115.5 -55.5t-166 -19.5q-132 0 -228.5 56.5t-148.5 157t-52 230.5q0 120 49 216.5t142.5 152.5t225.5 56q121 0 210.5 -50.5t139 -142.5t49.5 -220
q0 -8 -1 -28.5t-2 -28.5h-649zM700 506q-1 41 -23.5 90t-72.5 84t-135 35q-88 0 -141.5 -34t-78.5 -82.5t-29 -92.5h480zM344 934l-61 83l303 251l100 -124z" />
    <glyph glyph-name="ebreve" unicode="&#x115;" horiz-adv-x="955" 
d="M214 375q1 -74 32 -135t92.5 -97t151.5 -36q76 0 129.5 22.5t87.5 54t49 56.5l85 -105q-33 -48 -80.5 -84t-115.5 -55.5t-166 -19.5q-132 0 -228.5 56.5t-148.5 157t-52 230.5q0 120 49 216.5t142.5 152.5t225.5 56q121 0 210.5 -50.5t139 -142.5t49.5 -220
q0 -8 -1 -28.5t-2 -28.5h-649zM700 506q-1 41 -23.5 90t-72.5 84t-135 35q-88 0 -141.5 -34t-78.5 -82.5t-29 -92.5h480zM468 954q-86 0 -149.5 33t-101 85t-44.5 112l137 34q5 -31 23.5 -65t52 -57t82.5 -23q48 0 81.5 23t52 57t22.5 65l138 -34q-6 -57 -43 -110
t-100.5 -86.5t-150.5 -33.5z" />
    <glyph glyph-name="ecaron" unicode="&#x11b;" horiz-adv-x="969" 
d="M214 375q1 -74 32 -135t92.5 -97t151.5 -36q76 0 129.5 22.5t87.5 54t49 56.5l85 -105q-33 -48 -80.5 -84t-115.5 -55.5t-166 -19.5q-132 0 -228.5 56.5t-148.5 157t-52 230.5q0 120 49 216.5t142.5 152.5t225.5 56q121 0 210.5 -50.5t139 -142.5t49.5 -220
q0 -8 -1 -28.5t-2 -28.5h-649zM700 506q-1 41 -23.5 90t-72.5 84t-135 35q-88 0 -141.5 -34t-78.5 -82.5t-29 -92.5h480zM459 961l-299 219l76 102l223 -162l224 163l76 -102z" />
    <glyph glyph-name="ecircumflex" unicode="&#xea;" horiz-adv-x="955" 
d="M214 375q1 -74 32 -135t92.5 -97t151.5 -36q76 0 129.5 22.5t87.5 54t49 56.5l85 -105q-33 -48 -80.5 -84t-115.5 -55.5t-166 -19.5q-132 0 -228.5 56.5t-148.5 157t-52 230.5q0 120 49 216.5t142.5 152.5t225.5 56q121 0 210.5 -50.5t139 -142.5t49.5 -220
q0 -8 -1 -28.5t-2 -28.5h-649zM700 506q-1 41 -23.5 90t-72.5 84t-135 35q-88 0 -141.5 -34t-78.5 -82.5t-29 -92.5h480zM692 915l-224 164l-223 -163l-76 101l299 219l300 -219z" />
    <glyph glyph-name="uni1EBF" unicode="&#x1ebf;" horiz-adv-x="955" 
d="M214 375q1 -74 32 -135t92.5 -97t151.5 -36q76 0 129.5 22.5t87.5 54t49 56.5l85 -105q-33 -48 -80.5 -84t-115.5 -55.5t-166 -19.5q-132 0 -228.5 56.5t-148.5 157t-52 230.5q0 120 49 216.5t142.5 152.5t225.5 56q121 0 210.5 -50.5t139 -142.5t49.5 -220
q0 -8 -1 -28.5t-2 -28.5h-649zM700 506q-1 41 -23.5 90t-72.5 84t-135 35q-88 0 -141.5 -34t-78.5 -82.5t-29 -92.5h480zM692 909l-224 164l-223 -163l-76 102l299 219l300 -220zM684 1173l-61 83l304 251l99 -124z" />
    <glyph glyph-name="uni1EC7" unicode="&#x1ec7;" horiz-adv-x="955" 
d="M214 375q1 -74 32 -135t92.5 -97t151.5 -36q76 0 129.5 22.5t87.5 54t49 56.5l85 -105q-33 -48 -80.5 -84t-115.5 -55.5t-166 -19.5q-132 0 -228.5 56.5t-148.5 157t-52 230.5q0 120 49 216.5t142.5 152.5t225.5 56q121 0 210.5 -50.5t139 -142.5t49.5 -220
q0 -8 -1 -28.5t-2 -28.5h-649zM700 506q-1 41 -23.5 90t-72.5 84t-135 35q-88 0 -141.5 -34t-78.5 -82.5t-29 -92.5h480zM465 -304q-38 0 -65 27.5t-27 64.5t27 65t65 28t65.5 -27.5t27.5 -65.5t-27.5 -65t-65.5 -27zM692 915l-224 164l-223 -163l-76 101l299 219l300 -219z
" />
    <glyph glyph-name="uni1EC1" unicode="&#x1ec1;" horiz-adv-x="955" 
d="M214 375q1 -74 32 -135t92.5 -97t151.5 -36q76 0 129.5 22.5t87.5 54t49 56.5l85 -105q-33 -48 -80.5 -84t-115.5 -55.5t-166 -19.5q-132 0 -228.5 56.5t-148.5 157t-52 230.5q0 120 49 216.5t142.5 152.5t225.5 56q121 0 210.5 -50.5t139 -142.5t49.5 -220
q0 -8 -1 -28.5t-2 -28.5h-649zM700 506q-1 41 -23.5 90t-72.5 84t-135 35q-88 0 -141.5 -34t-78.5 -82.5t-29 -92.5h480zM696 911l-224 164l-223 -163l-76 101l299 219l300 -219zM845 1147l-341 210l98 124l305 -251z" />
    <glyph glyph-name="uni1EC3" unicode="&#x1ec3;" horiz-adv-x="955" 
d="M214 375q1 -74 32 -135t92.5 -97t151.5 -36q76 0 129.5 22.5t87.5 54t49 56.5l85 -105q-33 -48 -80.5 -84t-115.5 -55.5t-166 -19.5q-132 0 -228.5 56.5t-148.5 157t-52 230.5q0 120 49 216.5t142.5 152.5t225.5 56q121 0 210.5 -50.5t139 -142.5t49.5 -220
q0 -8 -1 -28.5t-2 -28.5h-649zM700 506q-1 41 -23.5 90t-72.5 84t-135 35q-88 0 -141.5 -34t-78.5 -82.5t-29 -92.5h480zM658 1165l-54 80q26 6 65.5 27t71 56t31.5 83q0 49 -20 70.5t-50 27.5t-61 6q-43 0 -92.5 -16.5t-79.5 -31.5v105q18 12 67 30t133 18q57 0 108 -17.5
t83.5 -59.5t32.5 -117q0 -58 -24.5 -102t-62 -75.5t-77 -51.5t-71.5 -32zM694 909l-224 164l-223 -163l-76 102l299 219l300 -220z" />
    <glyph glyph-name="uni1EC5" unicode="&#x1ec5;" horiz-adv-x="955" 
d="M214 375q1 -74 32 -135t92.5 -97t151.5 -36q76 0 129.5 22.5t87.5 54t49 56.5l85 -105q-33 -48 -80.5 -84t-115.5 -55.5t-166 -19.5q-132 0 -228.5 56.5t-148.5 157t-52 230.5q0 120 49 216.5t142.5 152.5t225.5 56q121 0 210.5 -50.5t139 -142.5t49.5 -220
q0 -8 -1 -28.5t-2 -28.5h-649zM700 506q-1 41 -23.5 90t-72.5 84t-135 35q-88 0 -141.5 -34t-78.5 -82.5t-29 -92.5h480zM142 1271q10 45 34.5 93t64 82t92.5 34q61 0 103 -19t79 -38t82 -19q35 0 56 26t27 50h126q-10 -45 -35.5 -93.5t-65 -82t-92.5 -33.5q-61 0 -104 19
t-79 37.5t-76 18.5q-33 0 -55.5 -25.5t-30.5 -49.5h-126zM689 909l-224 164l-223 -163l-76 102l299 219l300 -220z" />
    <glyph glyph-name="uni0205" unicode="&#x205;" horiz-adv-x="955" 
d="M214 375q1 -74 32 -135t92.5 -97t151.5 -36q76 0 129.5 22.5t87.5 54t49 56.5l85 -105q-33 -48 -80.5 -84t-115.5 -55.5t-166 -19.5q-132 0 -228.5 56.5t-148.5 157t-52 230.5q0 120 49 216.5t142.5 152.5t225.5 56q121 0 210.5 -50.5t139 -142.5t49.5 -220
q0 -8 -1 -28.5t-2 -28.5h-649zM700 506q-1 41 -23.5 90t-72.5 84t-135 35q-88 0 -141.5 -34t-78.5 -82.5t-29 -92.5h480zM715 974l-341 209l98 124l305 -251zM342 974l-341 209l98 124l306 -251z" />
    <glyph glyph-name="edieresis" unicode="&#xeb;" horiz-adv-x="955" 
d="M214 375q1 -74 32 -135t92.5 -97t151.5 -36q76 0 129.5 22.5t87.5 54t49 56.5l85 -105q-33 -48 -80.5 -84t-115.5 -55.5t-166 -19.5q-132 0 -228.5 56.5t-148.5 157t-52 230.5q0 120 49 216.5t142.5 152.5t225.5 56q121 0 210.5 -50.5t139 -142.5t49.5 -220
q0 -8 -1 -28.5t-2 -28.5h-649zM700 506q-1 41 -23.5 90t-72.5 84t-135 35q-88 0 -141.5 -34t-78.5 -82.5t-29 -92.5h480zM678 992q-45 0 -76 32t-31 75t31 75.5t76 32.5q43 0 75 -32t32 -76t-32 -75.5t-75 -31.5zM288 992q-44 0 -75.5 32t-31.5 75t31.5 75.5t75.5 32.5
q43 0 75 -32t32 -76t-32 -75.5t-75 -31.5z" />
    <glyph glyph-name="edotaccent" unicode="&#x117;" horiz-adv-x="955" 
d="M214 375q1 -74 32 -135t92.5 -97t151.5 -36q76 0 129.5 22.5t87.5 54t49 56.5l85 -105q-33 -48 -80.5 -84t-115.5 -55.5t-166 -19.5q-132 0 -228.5 56.5t-148.5 157t-52 230.5q0 120 49 216.5t142.5 152.5t225.5 56q121 0 210.5 -50.5t139 -142.5t49.5 -220
q0 -8 -1 -28.5t-2 -28.5h-649zM700 506q-1 41 -23.5 90t-72.5 84t-135 35q-88 0 -141.5 -34t-78.5 -82.5t-29 -92.5h480zM459 1011q-44 0 -75 32t-31 75t31 75.5t75 32.5t75.5 -32t31.5 -76t-31.5 -75.5t-75.5 -31.5z" />
    <glyph glyph-name="uni1EB9" unicode="&#x1eb9;" horiz-adv-x="955" 
d="M214 375q1 -74 32 -135t92.5 -97t151.5 -36q76 0 129.5 22.5t87.5 54t49 56.5l85 -105q-33 -48 -80.5 -84t-115.5 -55.5t-166 -19.5q-132 0 -228.5 56.5t-148.5 157t-52 230.5q0 120 49 216.5t142.5 152.5t225.5 56q121 0 210.5 -50.5t139 -142.5t49.5 -220
q0 -8 -1 -28.5t-2 -28.5h-649zM700 506q-1 41 -23.5 90t-72.5 84t-135 35q-88 0 -141.5 -34t-78.5 -82.5t-29 -92.5h480zM465 -304q-38 0 -65 27.5t-27 64.5t27 65t65 28t65.5 -27.5t27.5 -65.5t-27.5 -65t-65.5 -27z" />
    <glyph glyph-name="egrave" unicode="&#xe8;" horiz-adv-x="955" 
d="M214 375q1 -74 32 -135t92.5 -97t151.5 -36q76 0 129.5 22.5t87.5 54t49 56.5l85 -105q-33 -48 -80.5 -84t-115.5 -55.5t-166 -19.5q-132 0 -228.5 56.5t-148.5 157t-52 230.5q0 120 49 216.5t142.5 152.5t225.5 56q121 0 210.5 -50.5t139 -142.5t49.5 -220
q0 -8 -1 -28.5t-2 -28.5h-649zM700 506q-1 41 -23.5 90t-72.5 84t-135 35q-88 0 -141.5 -34t-78.5 -82.5t-29 -92.5h480zM624 974l-341 209l98 124l306 -251z" />
    <glyph glyph-name="uni1EBB" unicode="&#x1ebb;" horiz-adv-x="955" 
d="M214 375q1 -74 32 -135t92.5 -97t151.5 -36q76 0 129.5 22.5t87.5 54t49 56.5l85 -105q-33 -48 -80.5 -84t-115.5 -55.5t-166 -19.5q-132 0 -228.5 56.5t-148.5 157t-52 230.5q0 120 49 216.5t142.5 152.5t225.5 56q121 0 210.5 -50.5t139 -142.5t49.5 -220
q0 -8 -1 -28.5t-2 -28.5h-649zM700 506q-1 41 -23.5 90t-72.5 84t-135 35q-88 0 -141.5 -34t-78.5 -82.5t-29 -92.5h480zM445 872l-54 80q26 6 65.5 27t71 56t31.5 83q0 49 -20 70.5t-50 27.5t-61 6q-43 0 -92.5 -16.5t-79.5 -31.5v105q18 12 67 30t133 18q57 0 108 -17.5
t83.5 -59.5t32.5 -117q0 -58 -24.5 -102t-62 -75.5t-77 -51.5t-71.5 -32z" />
    <glyph glyph-name="uni0207" unicode="&#x207;" horiz-adv-x="955" 
d="M214 375q1 -74 32 -135t92.5 -97t151.5 -36q76 0 129.5 22.5t87.5 54t49 56.5l85 -105q-33 -48 -80.5 -84t-115.5 -55.5t-166 -19.5q-132 0 -228.5 56.5t-148.5 157t-52 230.5q0 120 49 216.5t142.5 152.5t225.5 56q121 0 210.5 -50.5t139 -142.5t49.5 -220
q0 -8 -1 -28.5t-2 -28.5h-649zM700 506q-1 41 -23.5 90t-72.5 84t-135 35q-88 0 -141.5 -34t-78.5 -82.5t-29 -92.5h480zM310 951l-138 34q7 57 43.5 110t100.5 86.5t151 33.5q86 0 149.5 -33t101 -85t43.5 -112l-137 -34q-4 32 -23 65.5t-52 56.5t-82 23t-82 -23
t-51.5 -56.5t-23.5 -65.5z" />
    <glyph glyph-name="emacron" unicode="&#x113;" horiz-adv-x="969" 
d="M214 375q1 -74 32 -135t92.5 -97t151.5 -36q76 0 129.5 22.5t87.5 54t49 56.5l85 -105q-33 -48 -80.5 -84t-115.5 -55.5t-166 -19.5q-132 0 -228.5 56.5t-148.5 157t-52 230.5q0 120 49 216.5t142.5 152.5t225.5 56q121 0 210.5 -50.5t139 -142.5t49.5 -220
q0 -8 -1 -28.5t-2 -28.5h-649zM700 506q-1 41 -23.5 90t-72.5 84t-135 35q-88 0 -141.5 -34t-78.5 -82.5t-29 -92.5h480zM170 1049v122h587v-122h-587z" />
    <glyph glyph-name="eogonek" unicode="&#x119;" horiz-adv-x="969" 
d="M214 375q1 -74 32 -135t92.5 -97t151.5 -36q76 0 129.5 22.5t87.5 54t49 56.5l85 -105q-33 -48 -80.5 -84t-115.5 -55.5t-166 -19.5q-132 0 -228.5 56.5t-148.5 157t-52 230.5q0 120 49 216.5t142.5 152.5t225.5 56q121 0 210.5 -50.5t139 -142.5t49.5 -220
q0 -8 -1 -28.5t-2 -28.5h-649zM700 506q-1 41 -23.5 90t-72.5 84t-135 35q-88 0 -141.5 -34t-78.5 -82.5t-29 -92.5h480zM567 -427q-42 0 -87.5 15t-77 53.5t-31.5 107.5q0 50 28.5 104.5t70 104t79.5 83.5l64 -41q-27 -27 -57 -66.5t-51 -83.5t-21 -84q0 -53 31.5 -72.5
t73.5 -19.5q39 0 70 20.5t46 42.5l81 -62q-23 -38 -85 -70t-134 -32z" />
    <glyph glyph-name="uni1EBD" unicode="&#x1ebd;" horiz-adv-x="955" 
d="M214 375q1 -74 32 -135t92.5 -97t151.5 -36q76 0 129.5 22.5t87.5 54t49 56.5l85 -105q-33 -48 -80.5 -84t-115.5 -55.5t-166 -19.5q-132 0 -228.5 56.5t-148.5 157t-52 230.5q0 120 49 216.5t142.5 152.5t225.5 56q121 0 210.5 -50.5t139 -142.5t49.5 -220
q0 -8 -1 -28.5t-2 -28.5h-649zM700 506q-1 41 -23.5 90t-72.5 84t-135 35q-88 0 -141.5 -34t-78.5 -82.5t-29 -92.5h480zM152 1004q10 46 34.5 94t64 81.5t92.5 33.5q61 0 103 -19t79 -38t82 -19q35 0 56 26t27 50h126q-10 -44 -35.5 -92.5t-65 -82.5t-92.5 -34
q-61 0 -104 19t-79 38t-76 19q-33 0 -55.5 -25.5t-30.5 -50.5h-126z" />
    <glyph glyph-name="uni0259" unicode="&#x259;" horiz-adv-x="955" 
d="M487 -24q-122 0 -211.5 50.5t-139 143t-49.5 219.5q0 9 0.5 23t1.5 21h647q-1 72 -32 135.5t-91 102.5t-150 39q-74 0 -127.5 -22t-87 -52.5t-50.5 -56.5l-86 109q34 48 80.5 83.5t115 54.5t166.5 19q134 0 230.5 -56t149 -156t52.5 -232q0 -120 -49.5 -216.5
t-143 -152.5t-226.5 -56zM485 102q87 0 139 34.5t77.5 88.5t28.5 111h-472q2 -54 24 -108t71 -90t132 -36z" />
    <glyph glyph-name="f" unicode="f" horiz-adv-x="654" 
d="M28 821h168v233q0 125 43.5 201t111 110.5t138.5 34.5q86 0 132.5 -24t55.5 -32l-70 -133q-5 6 -31 22t-71 16q-33 0 -64 -16t-52 -62t-21 -137v-213h234v-149h-234v-672h-172v672h-168v149z" />
    <glyph glyph-name="g" unicode="g" horiz-adv-x="1070" 
d="M497 -439q-97 0 -175.5 20t-137 56.5t-93.5 85.5l114 109q19 -26 51.5 -55.5t88.5 -50.5t146 -21q88 0 149 37.5t93 101.5t32 144v27h170v-38q0 -136 -58.5 -228.5t-157.5 -140t-222 -47.5zM765 0v160q-8 -25 -46.5 -69t-105 -79.5t-156.5 -35.5q-114 0 -206.5 54
t-147 151.5t-54.5 228.5t54.5 228.5t147 152t206.5 54.5q89 0 154.5 -32t105 -74t46.5 -72v154h172v-821h-170zM221 410q0 -89 39 -154t101.5 -100.5t133.5 -35.5q76 0 136 36t95 101.5t35 152.5t-35 152.5t-95 102t-136 36.5q-71 0 -133.5 -36t-101.5 -101t-39 -154z" />
    <glyph glyph-name="gbreve" unicode="&#x11f;" horiz-adv-x="1078" 
d="M497 -439q-97 0 -175.5 20t-137 56.5t-93.5 85.5l114 109q19 -26 51.5 -55.5t88.5 -50.5t146 -21q88 0 149 37.5t93 101.5t32 144v27h170v-38q0 -136 -58.5 -228.5t-157.5 -140t-222 -47.5zM765 0v160q-8 -25 -46.5 -69t-105 -79.5t-156.5 -35.5q-114 0 -206.5 54
t-147 151.5t-54.5 228.5t54.5 228.5t147 152t206.5 54.5q89 0 154.5 -32t105 -74t46.5 -72v154h172v-821h-170zM221 410q0 -89 39 -154t101.5 -100.5t133.5 -35.5q76 0 136 36t95 101.5t35 152.5t-35 152.5t-95 102t-136 36.5q-71 0 -133.5 -36t-101.5 -101t-39 -154z
M502 954q-86 0 -149.5 33t-101 85t-44.5 112l137 34q5 -31 23.5 -65t52 -57t82.5 -23q48 0 81.5 23t52 57t22.5 65l138 -34q-6 -57 -43 -110t-100.5 -86.5t-150.5 -33.5z" />
    <glyph glyph-name="gcaron" unicode="&#x1e7;" horiz-adv-x="1070" 
d="M497 -439q-97 0 -175.5 20t-137 56.5t-93.5 85.5l114 109q19 -26 51.5 -55.5t88.5 -50.5t146 -21q88 0 149 37.5t93 101.5t32 144v27h170v-38q0 -136 -58.5 -228.5t-157.5 -140t-222 -47.5zM765 0v160q-8 -25 -46.5 -69t-105 -79.5t-156.5 -35.5q-114 0 -206.5 54
t-147 151.5t-54.5 228.5t54.5 228.5t147 152t206.5 54.5q89 0 154.5 -32t105 -74t46.5 -72v154h172v-821h-170zM221 410q0 -89 39 -154t101.5 -100.5t133.5 -35.5q76 0 136 36t95 101.5t35 152.5t-35 152.5t-95 102t-136 36.5q-71 0 -133.5 -36t-101.5 -101t-39 -154z
M518 961l-299 219l76 102l223 -162l224 163l76 -102z" />
    <glyph glyph-name="gcircumflex" unicode="&#x11d;" horiz-adv-x="1070" 
d="M497 -439q-97 0 -175.5 20t-137 56.5t-93.5 85.5l114 109q19 -26 51.5 -55.5t88.5 -50.5t146 -21q88 0 149 37.5t93 101.5t32 144v27h170v-38q0 -136 -58.5 -228.5t-157.5 -140t-222 -47.5zM765 0v160q-8 -25 -46.5 -69t-105 -79.5t-156.5 -35.5q-114 0 -206.5 54
t-147 151.5t-54.5 228.5t54.5 228.5t147 152t206.5 54.5q89 0 154.5 -32t105 -74t46.5 -72v154h172v-821h-170zM221 410q0 -89 39 -154t101.5 -100.5t133.5 -35.5q76 0 136 36t95 101.5t35 152.5t-35 152.5t-95 102t-136 36.5q-71 0 -133.5 -36t-101.5 -101t-39 -154z
M726 915l-224 164l-223 -163l-76 101l299 219l300 -219z" />
    <glyph glyph-name="uni0123" unicode="&#x123;" horiz-adv-x="1070" 
d="M497 -439q-97 0 -175.5 20t-137 56.5t-93.5 85.5l114 109q19 -26 51.5 -55.5t88.5 -50.5t146 -21q88 0 149 37.5t93 101.5t32 144v27h170v-38q0 -136 -58.5 -228.5t-157.5 -140t-222 -47.5zM765 0v160q-8 -25 -46.5 -69t-105 -79.5t-156.5 -35.5q-114 0 -206.5 54
t-147 151.5t-54.5 228.5t54.5 228.5t147 152t206.5 54.5q89 0 154.5 -32t105 -74t46.5 -72v154h172v-821h-170zM221 410q0 -89 39 -154t101.5 -100.5t133.5 -35.5q76 0 136 36t95 101.5t35 152.5t-35 152.5t-95 102t-136 36.5q-71 0 -133.5 -36t-101.5 -101t-39 -154z
M472 955q-40 0 -69 28.5t-29 77.5t20 93.5t52.5 79.5t70.5 55l43 -44q-30 -15 -65.5 -45.5t-44.5 -69.5q14 7 34 7q34 0 59 -25.5t25 -62.5q0 -40 -27.5 -67t-68.5 -27z" />
    <glyph glyph-name="gdotaccent" unicode="&#x121;" horiz-adv-x="1060" 
d="M497 -439q-97 0 -175.5 20t-137 56.5t-93.5 85.5l114 109q19 -26 51.5 -55.5t88.5 -50.5t146 -21q88 0 149 37.5t93 101.5t32 144v27h170v-38q0 -136 -58.5 -228.5t-157.5 -140t-222 -47.5zM765 0v160q-8 -25 -46.5 -69t-105 -79.5t-156.5 -35.5q-114 0 -206.5 54
t-147 151.5t-54.5 228.5t54.5 228.5t147 152t206.5 54.5q89 0 154.5 -32t105 -74t46.5 -72v154h172v-821h-170zM221 410q0 -89 39 -154t101.5 -100.5t133.5 -35.5q76 0 136 36t95 101.5t35 152.5t-35 152.5t-95 102t-136 36.5q-71 0 -133.5 -36t-101.5 -101t-39 -154z
M493 1011q-44 0 -75 32t-31 75t31 75.5t75 32.5t75.5 -32t31.5 -76t-31.5 -75.5t-75.5 -31.5z" />
    <glyph glyph-name="h" unicode="h" horiz-adv-x="1033" 
d="M570 845q81 0 157.5 -34t126 -107.5t49.5 -191.5v-512h-176v478q0 122 -55.5 177.5t-145.5 55.5q-60 0 -115 -33.5t-90.5 -92t-35.5 -132.5v-453h-176v1376h176v-701q9 34 48.5 74t101.5 68t135 28z" />
    <glyph glyph-name="hbar" unicode="&#x127;" horiz-adv-x="1033" 
d="M1 1027v116h493v-116h-493zM570 845q81 0 157.5 -34t126 -107.5t49.5 -191.5v-512h-176v478q0 122 -55.5 177.5t-145.5 55.5q-60 0 -115 -33.5t-90.5 -92t-35.5 -132.5v-453h-176v1376h176v-701q9 34 48.5 74t101.5 68t135 28z" />
    <glyph glyph-name="hcircumflex" unicode="&#x125;" horiz-adv-x="1033" 
d="M570 845q81 0 157.5 -34t126 -107.5t49.5 -191.5v-512h-176v478q0 122 -55.5 177.5t-145.5 55.5q-60 0 -115 -33.5t-90.5 -92t-35.5 -132.5v-453h-176v1376h176v-701q9 34 48.5 74t101.5 68t135 28zM739 1447l-224 164l-223 -163l-76 101l299 219l300 -219z" />
    <glyph glyph-name="i" unicode="i" horiz-adv-x="459" 
d="M124 0v821h174v-821h-174zM213 1102q-47 0 -80.5 33.5t-33.5 80.5t33.5 81t80.5 34q31 0 57.5 -16t42.5 -41.5t16 -57.5q0 -47 -34 -80.5t-82 -33.5z" />
    <glyph glyph-name="dotlessi" unicode="&#x131;" horiz-adv-x="383" 
d="M93 0v821h163v-821h-163z" />
    <glyph glyph-name="iacute" unicode="&#xed;" horiz-adv-x="383" 
d="M93 0v821h163v-821h-163zM51 934l-61 83l303 251l100 -124z" />
    <glyph glyph-name="ibreve" unicode="&#x12d;" horiz-adv-x="383" 
d="M93 0v821h163v-821h-163zM175 954q-86 0 -149.5 33t-101 85t-44.5 112l137 34q5 -31 23.5 -65t52 -57t82.5 -23q48 0 81.5 23t52 57t22.5 65l138 -34q-6 -57 -43 -110t-100.5 -86.5t-150.5 -33.5z" />
    <glyph glyph-name="uni01D0" unicode="&#x1d0;" horiz-adv-x="383" 
d="M93 0v821h163v-821h-163zM191 961l-299 219l76 102l223 -162l224 163l76 -102z" />
    <glyph glyph-name="icircumflex" unicode="&#xee;" horiz-adv-x="383" 
d="M93 0v821h163v-821h-163zM399 915l-224 164l-223 -163l-76 101l299 219l300 -219z" />
    <glyph glyph-name="uni0209" unicode="&#x209;" horiz-adv-x="383" 
d="M93 0v821h163v-821h-163zM421 974l-341 209l98 124l305 -251zM48 974l-341 209l98 124l306 -251z" />
    <glyph glyph-name="idieresis" unicode="&#xef;" horiz-adv-x="383" 
d="M93 0v821h163v-821h-163zM384 992q-45 0 -76 32t-31 75t31 75.5t76 32.5q43 0 75 -32t32 -76t-32 -75.5t-75 -31.5zM-6 992q-44 0 -75.5 32t-31.5 75t31.5 75.5t75.5 32.5q43 0 75 -32t32 -76t-32 -75.5t-75 -31.5z" />
    <glyph glyph-name="i.loclTRK" horiz-adv-x="383" 
d="M93 0v821h163v-821h-163zM160 1011q-44 0 -75 32t-31 75t31 75.5t75 32.5t75.5 -32t31.5 -76t-31.5 -75.5t-75.5 -31.5z" />
    <glyph glyph-name="uni1ECB" unicode="&#x1ecb;" horiz-adv-x="459" 
d="M124 0v821h174v-821h-174zM213 1102q-47 0 -80.5 33.5t-33.5 80.5t33.5 81t80.5 34q31 0 57.5 -16t42.5 -41.5t16 -57.5q0 -47 -34 -80.5t-82 -33.5zM213 -304q-38 0 -65 27.5t-27 64.5t27 65t65 28t65.5 -27.5t27.5 -65.5t-27.5 -65t-65.5 -27z" />
    <glyph glyph-name="igrave" unicode="&#xec;" horiz-adv-x="383" 
d="M93 0v821h163v-821h-163zM331 974l-341 209l98 124l306 -251z" />
    <glyph glyph-name="uni1EC9" unicode="&#x1ec9;" horiz-adv-x="383" 
d="M93 0v821h163v-821h-163zM151 872l-54 80q26 6 65.5 27t71 56t31.5 83q0 49 -20 70.5t-50 27.5t-61 6q-43 0 -92.5 -16.5t-79.5 -31.5v105q18 12 67 30t133 18q57 0 108 -17.5t83.5 -59.5t32.5 -117q0 -58 -24.5 -102t-62 -75.5t-77 -51.5t-71.5 -32z" />
    <glyph glyph-name="uni020B" unicode="&#x20b;" horiz-adv-x="383" 
d="M93 0v821h163v-821h-163zM17 951l-138 34q7 57 43.5 110t100.5 86.5t151 33.5q86 0 149.5 -33t101 -85t43.5 -112l-137 -34q-4 32 -23 65.5t-52 56.5t-82 23t-82 -23t-51.5 -56.5t-23.5 -65.5z" />
    <glyph glyph-name="imacron" unicode="&#x12b;" horiz-adv-x="383" 
d="M93 0v821h163v-821h-163zM-118 1049v122h587v-122h-587z" />
    <glyph glyph-name="iogonek" unicode="&#x12f;" horiz-adv-x="459" 
d="M124 0v821h174v-821h-174zM213 1102q-47 0 -80.5 33.5t-33.5 80.5t33.5 81t80.5 34q31 0 57.5 -16t42.5 -41.5t16 -57.5q0 -47 -34 -80.5t-82 -33.5zM203 -427q-42 0 -87.5 15t-77 53.5t-31.5 107.5q0 50 28.5 104.5t70 104t79.5 83.5l64 -41q-27 -27 -57 -66.5
t-51 -83.5t-21 -84q0 -53 31.5 -72.5t73.5 -19.5q39 0 70 20.5t46 42.5l81 -62q-23 -38 -85 -70t-134 -32z" />
    <glyph glyph-name="itilde" unicode="&#x129;" horiz-adv-x="383" 
d="M93 0v821h163v-821h-163zM-142 1004q10 46 34.5 94t64 81.5t92.5 33.5q61 0 103 -19t79 -38t82 -19q35 0 56 26t27 50h126q-10 -44 -35.5 -92.5t-65 -82.5t-92.5 -34q-61 0 -104 19t-79 38t-76 19q-33 0 -55.5 -25.5t-30.5 -50.5h-126z" />
    <glyph glyph-name="j" unicode="j" horiz-adv-x="478" 
d="M70 -440q-67 0 -112 15t-66 29l65 133q13 -11 30.5 -18.5t51.5 -7.5q44 0 67.5 27t32.5 75.5t9 114.5v893h174v-935q0 -97 -24.5 -170.5t-79.5 -114.5t-148 -41zM240 1102q-48 0 -81 33.5t-33 80.5q0 31 15.5 57t41.5 42t57 16q32 0 58 -16t41 -42t15 -57
q0 -47 -33 -80.5t-81 -33.5z" />
    <glyph glyph-name="uni0237" unicode="&#x237;" horiz-adv-x="478" 
d="M70 -440q-67 0 -112 15t-66 29l65 133q13 -11 30.5 -18.5t51.5 -7.5q44 0 67.5 27t32.5 75.5t9 114.5v893h174v-935q0 -97 -24.5 -170.5t-79.5 -114.5t-148 -41z" />
    <glyph glyph-name="jcircumflex" unicode="&#x135;" horiz-adv-x="478" 
d="M70 -440q-67 0 -112 15t-66 29l65 133q13 -11 30.5 -18.5t51.5 -7.5q44 0 67.5 27t32.5 75.5t9 114.5v893h174v-935q0 -97 -24.5 -170.5t-79.5 -114.5t-148 -41zM463 915l-224 164l-223 -163l-76 101l299 219l300 -219z" />
    <glyph glyph-name="k" unicode="k" horiz-adv-x="861" 
d="M607 821h210l-424 -391l452 -430h-213l-381 364v-364h-174v1376h174v-880z" />
    <glyph glyph-name="uni0137" unicode="&#x137;" horiz-adv-x="861" 
d="M607 821h210l-424 -391l452 -430h-213l-381 364v-364h-174v1376h174v-880zM368 -469l-52 53q36 17 78 53.5t53 81.5q-17 -8 -41 -8q-40 0 -69.5 30t-29.5 75q0 49 33 81t80 32q49 0 83.5 -34t34.5 -92q0 -59 -24 -112t-62.5 -94.5t-83.5 -65.5z" />
    <glyph glyph-name="kgreenlandic" unicode="&#x138;" horiz-adv-x="875" 
d="M428 420l414 -420h-210l-351 362v-362h-171v821h171v-354l320 354h200z" />
    <glyph glyph-name="l" unicode="l" horiz-adv-x="431" 
d="M286 0h-175v1376h175v-1376z" />
    <glyph glyph-name="lacute" unicode="&#x13a;" horiz-adv-x="431" 
d="M286 0h-175v1376h175v-1376zM135 1529l-61 82l303 251l100 -124z" />
    <glyph glyph-name="lcaron" unicode="&#x13e;" horiz-adv-x="431" 
d="M525 1026l-42 43q29 14 63 44t43 67q-14 -7 -33 -7q-32 0 -56 24.5t-24 60.5q0 40 26.5 66t65.5 26t67.5 -27.5t28.5 -74.5q0 -48 -20 -91t-51.5 -77t-67.5 -54zM286 0h-175v1376h175v-1376z" />
    <glyph glyph-name="uni013C" unicode="&#x13c;" horiz-adv-x="431" 
d="M286 0h-175v1376h175v-1376zM156 -469l-52 53q36 17 78 53.5t53 81.5q-17 -8 -41 -8q-40 0 -69.5 30t-29.5 75q0 49 33 81t80 32q49 0 83.5 -34t34.5 -92q0 -59 -24 -112t-62.5 -94.5t-83.5 -65.5z" />
    <glyph glyph-name="ldot" unicode="&#x140;" horiz-adv-x="623" 
d="M286 0h-175v1376h175v-1376zM489 558q-55 0 -94.5 39.5t-39.5 94.5q0 57 39.5 96.5t94.5 39.5q57 0 96 -39.5t39 -96.5q0 -55 -39 -94.5t-96 -39.5z" />
    <glyph glyph-name="uni01C9" unicode="&#x1c9;" horiz-adv-x="909" 
d="M286 0h-175v1376h175v-1376zM501 -440q-67 0 -112 15t-66 29l65 133q13 -11 30.5 -18.5t51.5 -7.5q44 0 67.5 27t32.5 75.5t9 114.5v893h174v-935q0 -97 -24.5 -170.5t-79.5 -114.5t-148 -41zM671 1102q-48 0 -81 33.5t-33 80.5q0 31 15.5 57t41.5 42t57 16q32 0 58 -16
t41 -42t15 -57q0 -47 -33 -80.5t-81 -33.5z" />
    <glyph glyph-name="lslash" unicode="&#x142;" horiz-adv-x="515" 
d="M151 0v557l-104 -82v170l104 82v649h164v-519l119 92v-170l-119 -92v-687h-164z" />
    <glyph glyph-name="m" unicode="m" horiz-adv-x="1515" 
d="M1090 845q91 0 156 -39.5t99.5 -120.5t34.5 -207v-478h-172v443q0 133 -37 200t-135 67q-52 0 -99.5 -28.5t-78 -87.5t-30.5 -151v-443h-162v443q0 133 -46 200t-129 67q-53 0 -99.5 -27.5t-75.5 -86.5t-29 -153v-443h-173v821h173v-126q11 31 47.5 66t94 59.5
t128.5 24.5q74 0 124 -30t79 -73.5t40 -83.5q14 43 54 86.5t101 72t135 28.5z" />
    <glyph glyph-name="n" unicode="n" horiz-adv-x="1020" 
d="M564 845q81 0 157.5 -34t126 -107.5t49.5 -191.5v-512h-176v478q0 122 -57 177.5t-147 55.5q-59 0 -113.5 -33.5t-89.5 -92t-35 -132.5v-453h-174v821h174v-146q9 34 49 74t102 68t134 28z" />
    <glyph glyph-name="nacute" unicode="&#x144;" horiz-adv-x="1020" 
d="M564 845q81 0 157.5 -34t126 -107.5t49.5 -191.5v-512h-176v478q0 122 -57 177.5t-147 55.5q-59 0 -113.5 -33.5t-89.5 -92t-35 -132.5v-453h-174v821h174v-146q9 34 49 74t102 68t134 28zM356 934l-61 83l303 251l100 -124z" />
    <glyph glyph-name="ncaron" unicode="&#x148;" horiz-adv-x="1020" 
d="M564 845q81 0 157.5 -34t126 -107.5t49.5 -191.5v-512h-176v478q0 122 -57 177.5t-147 55.5q-59 0 -113.5 -33.5t-89.5 -92t-35 -132.5v-453h-174v821h174v-146q9 34 49 74t102 68t134 28zM481 961l-299 219l76 102l223 -162l224 163l76 -102z" />
    <glyph glyph-name="uni0146" unicode="&#x146;" horiz-adv-x="1020" 
d="M564 845q81 0 157.5 -34t126 -107.5t49.5 -191.5v-512h-176v478q0 122 -57 177.5t-147 55.5q-59 0 -113.5 -33.5t-89.5 -92t-35 -132.5v-453h-174v821h174v-146q9 34 49 74t102 68t134 28zM438 -469l-52 53q36 17 78 53.5t53 81.5q-17 -8 -41 -8q-40 0 -69.5 30t-29.5 75
q0 49 33 81t80 32q49 0 83.5 -34t34.5 -92q0 -59 -24 -112t-62.5 -94.5t-83.5 -65.5z" />
    <glyph glyph-name="uni01CC" unicode="&#x1cc;" horiz-adv-x="1498" 
d="M564 845q81 0 157.5 -34t126 -107.5t49.5 -191.5v-512h-176v478q0 122 -57 177.5t-147 55.5q-59 0 -113.5 -33.5t-89.5 -92t-35 -132.5v-453h-174v821h174v-146q9 34 49 74t102 68t134 28zM1090 -440q-67 0 -112 15t-66 29l65 133q13 -11 30.5 -18.5t51.5 -7.5
q44 0 67.5 27t32.5 75.5t9 114.5v893h174v-935q0 -97 -24.5 -170.5t-79.5 -114.5t-148 -41zM1260 1102q-48 0 -81 33.5t-33 80.5q0 31 15.5 57t41.5 42t57 16q32 0 58 -16t41 -42t15 -57q0 -47 -33 -80.5t-81 -33.5z" />
    <glyph glyph-name="ntilde" unicode="&#xf1;" horiz-adv-x="1020" 
d="M564 845q81 0 157.5 -34t126 -107.5t49.5 -191.5v-512h-176v478q0 122 -57 177.5t-147 55.5q-59 0 -113.5 -33.5t-89.5 -92t-35 -132.5v-453h-174v821h174v-146q9 34 49 74t102 68t134 28zM163 1004q10 46 34.5 94t64 81.5t92.5 33.5q61 0 103 -19t79 -38t82 -19
q35 0 56 26t27 50h126q-10 -44 -35.5 -92.5t-65 -82.5t-92.5 -34q-61 0 -104 19t-79 38t-76 19q-33 0 -55.5 -25.5t-30.5 -50.5h-126z" />
    <glyph glyph-name="eng" unicode="&#x14b;" horiz-adv-x="1020" 
d="M897 0h-176v-56q0 -58 -6 -108.5t-27 -82t-65 -31.5q-31 0 -55 9.5t-35 17.5l-65 -139q11 -7 52.5 -23t119.5 -16q70 0 119 28.5t79.5 76.5t44.5 107.5t14 122.5v94zM564 845q81 0 157.5 -34t126 -107.5t49.5 -191.5v-512h-176v478q0 122 -57 177.5t-147 55.5
q-59 0 -113.5 -33.5t-89.5 -92t-35 -132.5v-453h-174v821h174v-146q9 34 49 74t102 68t134 28z" />
    <glyph glyph-name="o" unicode="o" horiz-adv-x="1003" 
d="M485 -24q-127 0 -225.5 57t-154.5 154.5t-56 220.5t56 222t154.5 157t225.5 58q126 0 223.5 -58t152.5 -157t55 -222t-55 -220.5t-152.5 -154.5t-223.5 -57zM485 125q80 0 139.5 37t92.5 101.5t33 145.5t-33 146t-92.5 103t-139.5 38q-81 0 -141 -38t-93.5 -103
t-33.5 -146t33.5 -145.5t93.5 -101.5t141 -37z" />
    <glyph glyph-name="oacute" unicode="&#xf3;" horiz-adv-x="1003" 
d="M485 -24q-127 0 -225.5 57t-154.5 154.5t-56 220.5t56 222t154.5 157t225.5 58q126 0 223.5 -58t152.5 -157t55 -222t-55 -220.5t-152.5 -154.5t-223.5 -57zM485 125q80 0 139.5 37t92.5 101.5t33 145.5t-33 146t-92.5 103t-139.5 38q-81 0 -141 -38t-93.5 -103
t-33.5 -146t33.5 -145.5t93.5 -101.5t141 -37zM359 934l-61 83l303 251l100 -124z" />
    <glyph glyph-name="obreve" unicode="&#x14f;" horiz-adv-x="1003" 
d="M485 -24q-127 0 -225.5 57t-154.5 154.5t-56 220.5t56 222t154.5 157t225.5 58q126 0 223.5 -58t152.5 -157t55 -222t-55 -220.5t-152.5 -154.5t-223.5 -57zM485 125q80 0 139.5 37t92.5 101.5t33 145.5t-33 146t-92.5 103t-139.5 38q-81 0 -141 -38t-93.5 -103
t-33.5 -146t33.5 -145.5t93.5 -101.5t141 -37zM483 954q-86 0 -149.5 33t-101 85t-44.5 112l137 34q5 -31 23.5 -65t52 -57t82.5 -23q48 0 81.5 23t52 57t22.5 65l138 -34q-6 -57 -43 -110t-100.5 -86.5t-150.5 -33.5z" />
    <glyph glyph-name="uni01D2" unicode="&#x1d2;" horiz-adv-x="1003" 
d="M485 -24q-127 0 -225.5 57t-154.5 154.5t-56 220.5t56 222t154.5 157t225.5 58q126 0 223.5 -58t152.5 -157t55 -222t-55 -220.5t-152.5 -154.5t-223.5 -57zM485 125q80 0 139.5 37t92.5 101.5t33 145.5t-33 146t-92.5 103t-139.5 38q-81 0 -141 -38t-93.5 -103
t-33.5 -146t33.5 -145.5t93.5 -101.5t141 -37zM499 961l-299 219l76 102l223 -162l224 163l76 -102z" />
    <glyph glyph-name="ocircumflex" unicode="&#xf4;" horiz-adv-x="1003" 
d="M485 -24q-127 0 -225.5 57t-154.5 154.5t-56 220.5t56 222t154.5 157t225.5 58q126 0 223.5 -58t152.5 -157t55 -222t-55 -220.5t-152.5 -154.5t-223.5 -57zM485 125q80 0 139.5 37t92.5 101.5t33 145.5t-33 146t-92.5 103t-139.5 38q-81 0 -141 -38t-93.5 -103
t-33.5 -146t33.5 -145.5t93.5 -101.5t141 -37zM707 915l-224 164l-223 -163l-76 101l299 219l300 -219z" />
    <glyph glyph-name="uni1ED1" unicode="&#x1ed1;" horiz-adv-x="1003" 
d="M485 -24q-127 0 -225.5 57t-154.5 154.5t-56 220.5t56 222t154.5 157t225.5 58q126 0 223.5 -58t152.5 -157t55 -222t-55 -220.5t-152.5 -154.5t-223.5 -57zM485 125q80 0 139.5 37t92.5 101.5t33 145.5t-33 146t-92.5 103t-139.5 38q-81 0 -141 -38t-93.5 -103
t-33.5 -146t33.5 -145.5t93.5 -101.5t141 -37zM707 909l-224 164l-223 -163l-76 102l299 219l300 -220zM699 1173l-61 83l304 251l99 -124z" />
    <glyph glyph-name="uni1ED9" unicode="&#x1ed9;" horiz-adv-x="1003" 
d="M485 -24q-127 0 -225.5 57t-154.5 154.5t-56 220.5t56 222t154.5 157t225.5 58q126 0 223.5 -58t152.5 -157t55 -222t-55 -220.5t-152.5 -154.5t-223.5 -57zM485 125q80 0 139.5 37t92.5 101.5t33 145.5t-33 146t-92.5 103t-139.5 38q-81 0 -141 -38t-93.5 -103
t-33.5 -146t33.5 -145.5t93.5 -101.5t141 -37zM482 -434q-38 0 -65 27.5t-27 64.5t27 65t65 28t65.5 -27.5t27.5 -65.5t-27.5 -65t-65.5 -27zM707 915l-224 164l-223 -163l-76 101l299 219l300 -219z" />
    <glyph glyph-name="uni1ED3" unicode="&#x1ed3;" horiz-adv-x="1003" 
d="M485 -24q-127 0 -225.5 57t-154.5 154.5t-56 220.5t56 222t154.5 157t225.5 58q126 0 223.5 -58t152.5 -157t55 -222t-55 -220.5t-152.5 -154.5t-223.5 -57zM485 125q80 0 139.5 37t92.5 101.5t33 145.5t-33 146t-92.5 103t-139.5 38q-81 0 -141 -38t-93.5 -103
t-33.5 -146t33.5 -145.5t93.5 -101.5t141 -37zM710 911l-224 164l-223 -163l-76 101l299 219l300 -219zM859 1147l-341 210l98 124l305 -251z" />
    <glyph glyph-name="uni1ED5" unicode="&#x1ed5;" horiz-adv-x="1003" 
d="M485 -24q-127 0 -225.5 57t-154.5 154.5t-56 220.5t56 222t154.5 157t225.5 58q126 0 223.5 -58t152.5 -157t55 -222t-55 -220.5t-152.5 -154.5t-223.5 -57zM485 125q80 0 139.5 37t92.5 101.5t33 145.5t-33 146t-92.5 103t-139.5 38q-81 0 -141 -38t-93.5 -103
t-33.5 -146t33.5 -145.5t93.5 -101.5t141 -37zM672 1165l-54 80q26 6 65.5 27t71 56t31.5 83q0 49 -20 70.5t-50 27.5t-61 6q-43 0 -92.5 -16.5t-79.5 -31.5v105q18 12 67 30t133 18q57 0 108 -17.5t83.5 -59.5t32.5 -117q0 -58 -24.5 -102t-62 -75.5t-77 -51.5t-71.5 -32z
M708 909l-224 164l-223 -163l-76 102l299 219l300 -220z" />
    <glyph glyph-name="uni1ED7" unicode="&#x1ed7;" horiz-adv-x="1003" 
d="M485 -24q-127 0 -225.5 57t-154.5 154.5t-56 220.5t56 222t154.5 157t225.5 58q126 0 223.5 -58t152.5 -157t55 -222t-55 -220.5t-152.5 -154.5t-223.5 -57zM485 125q80 0 139.5 37t92.5 101.5t33 145.5t-33 146t-92.5 103t-139.5 38q-81 0 -141 -38t-93.5 -103
t-33.5 -146t33.5 -145.5t93.5 -101.5t141 -37zM157 1271q10 45 34.5 93t64 82t92.5 34q61 0 103 -19t79 -38t82 -19q35 0 56 26t27 50h126q-10 -45 -35.5 -93.5t-65 -82t-92.5 -33.5q-61 0 -104 19t-79 37.5t-76 18.5q-33 0 -55.5 -25.5t-30.5 -49.5h-126zM704 909l-224 164
l-223 -163l-76 102l299 219l300 -220z" />
    <glyph glyph-name="uni020D" unicode="&#x20d;" horiz-adv-x="1003" 
d="M485 -24q-127 0 -225.5 57t-154.5 154.5t-56 220.5t56 222t154.5 157t225.5 58q126 0 223.5 -58t152.5 -157t55 -222t-55 -220.5t-152.5 -154.5t-223.5 -57zM485 125q80 0 139.5 37t92.5 101.5t33 145.5t-33 146t-92.5 103t-139.5 38q-81 0 -141 -38t-93.5 -103
t-33.5 -146t33.5 -145.5t93.5 -101.5t141 -37zM729 974l-341 209l98 124l305 -251zM356 974l-341 209l98 124l306 -251z" />
    <glyph glyph-name="odieresis" unicode="&#xf6;" horiz-adv-x="1003" 
d="M485 -24q-127 0 -225.5 57t-154.5 154.5t-56 220.5t56 222t154.5 157t225.5 58q126 0 223.5 -58t152.5 -157t55 -222t-55 -220.5t-152.5 -154.5t-223.5 -57zM485 125q80 0 139.5 37t92.5 101.5t33 145.5t-33 146t-92.5 103t-139.5 38q-81 0 -141 -38t-93.5 -103
t-33.5 -146t33.5 -145.5t93.5 -101.5t141 -37zM692 992q-45 0 -76 32t-31 75t31 75.5t76 32.5q43 0 75 -32t32 -76t-32 -75.5t-75 -31.5zM302 992q-44 0 -75.5 32t-31.5 75t31.5 75.5t75.5 32.5q43 0 75 -32t32 -76t-32 -75.5t-75 -31.5z" />
    <glyph glyph-name="uni022B" unicode="&#x22b;" horiz-adv-x="1003" 
d="M485 -24q-127 0 -225.5 57t-154.5 154.5t-56 220.5t56 222t154.5 157t225.5 58q126 0 223.5 -58t152.5 -157t55 -222t-55 -220.5t-152.5 -154.5t-223.5 -57zM485 125q80 0 139.5 37t92.5 101.5t33 145.5t-33 146t-92.5 103t-139.5 38q-81 0 -141 -38t-93.5 -103
t-33.5 -146t33.5 -145.5t93.5 -101.5t141 -37zM692 992q-45 0 -76 32t-31 75t31 75.5t76 32.5q43 0 75 -32t32 -76t-32 -75.5t-75 -31.5zM302 992q-44 0 -75.5 32t-31.5 75t31.5 75.5t75.5 32.5q43 0 75 -32t32 -76t-32 -75.5t-75 -31.5zM206 1313v122h587v-122h-587z" />
    <glyph glyph-name="uni0231" unicode="&#x231;" horiz-adv-x="1003" 
d="M485 -24q-127 0 -225.5 57t-154.5 154.5t-56 220.5t56 222t154.5 157t225.5 58q126 0 223.5 -58t152.5 -157t55 -222t-55 -220.5t-152.5 -154.5t-223.5 -57zM485 125q80 0 139.5 37t92.5 101.5t33 145.5t-33 146t-92.5 103t-139.5 38q-81 0 -141 -38t-93.5 -103
t-33.5 -146t33.5 -145.5t93.5 -101.5t141 -37zM498 1011q-44 0 -75 32t-31 75t31 75.5t75 32.5t75.5 -32t31.5 -76t-31.5 -75.5t-75.5 -31.5zM222 1331v122h587v-122h-587z" />
    <glyph glyph-name="uni1ECD" unicode="&#x1ecd;" horiz-adv-x="1003" 
d="M485 -24q-127 0 -225.5 57t-154.5 154.5t-56 220.5t56 222t154.5 157t225.5 58q126 0 223.5 -58t152.5 -157t55 -222t-55 -220.5t-152.5 -154.5t-223.5 -57zM485 125q80 0 139.5 37t92.5 101.5t33 145.5t-33 146t-92.5 103t-139.5 38q-81 0 -141 -38t-93.5 -103
t-33.5 -146t33.5 -145.5t93.5 -101.5t141 -37zM482 -434q-38 0 -65 27.5t-27 64.5t27 65t65 28t65.5 -27.5t27.5 -65.5t-27.5 -65t-65.5 -27z" />
    <glyph glyph-name="ograve" unicode="&#xf2;" horiz-adv-x="1003" 
d="M485 -24q-127 0 -225.5 57t-154.5 154.5t-56 220.5t56 222t154.5 157t225.5 58q126 0 223.5 -58t152.5 -157t55 -222t-55 -220.5t-152.5 -154.5t-223.5 -57zM485 125q80 0 139.5 37t92.5 101.5t33 145.5t-33 146t-92.5 103t-139.5 38q-81 0 -141 -38t-93.5 -103
t-33.5 -146t33.5 -145.5t93.5 -101.5t141 -37zM639 974l-341 209l98 124l306 -251z" />
    <glyph glyph-name="uni1ECF" unicode="&#x1ecf;" horiz-adv-x="1003" 
d="M485 -24q-127 0 -225.5 57t-154.5 154.5t-56 220.5t56 222t154.5 157t225.5 58q126 0 223.5 -58t152.5 -157t55 -222t-55 -220.5t-152.5 -154.5t-223.5 -57zM485 125q80 0 139.5 37t92.5 101.5t33 145.5t-33 146t-92.5 103t-139.5 38q-81 0 -141 -38t-93.5 -103
t-33.5 -146t33.5 -145.5t93.5 -101.5t141 -37zM459 872l-54 80q26 6 65.5 27t71 56t31.5 83q0 49 -20 70.5t-50 27.5t-61 6q-43 0 -92.5 -16.5t-79.5 -31.5v105q18 12 67 30t133 18q57 0 108 -17.5t83.5 -59.5t32.5 -117q0 -58 -24.5 -102t-62 -75.5t-77 -51.5t-71.5 -32z
" />
    <glyph glyph-name="ohorn" unicode="&#x1a1;" horiz-adv-x="1003" 
d="M485 -24q-127 0 -225.5 57t-154.5 154.5t-56 220.5t56 222t154.5 157t225.5 58q126 0 223.5 -58t152.5 -157t55 -222t-55 -220.5t-152.5 -154.5t-223.5 -57zM485 125q80 0 139.5 37t92.5 101.5t33 145.5t-33 146t-92.5 103t-139.5 38q-81 0 -141 -38t-93.5 -103
t-33.5 -146t33.5 -145.5t93.5 -101.5t141 -37zM808 656q-31 0 -57.5 8.5t-49.5 21.5v98q15 -13 39 -22.5t54 -9.5q58 0 88 41t30 91q0 44 -6 68.5t-18 52.5h122q8 -14 18 -45.5t10 -87.5q0 -58 -31.5 -107t-83.5 -79t-115 -30z" />
    <glyph glyph-name="uni1EDB" unicode="&#x1edb;" horiz-adv-x="1003" 
d="M485 -24q-127 0 -225.5 57t-154.5 154.5t-56 220.5t56 222t154.5 157t225.5 58q126 0 223.5 -58t152.5 -157t55 -222t-55 -220.5t-152.5 -154.5t-223.5 -57zM485 125q80 0 139.5 37t92.5 101.5t33 145.5t-33 146t-92.5 103t-139.5 38q-81 0 -141 -38t-93.5 -103
t-33.5 -146t33.5 -145.5t93.5 -101.5t141 -37zM808 656q-31 0 -57.5 8.5t-49.5 21.5v98q15 -13 39 -22.5t54 -9.5q58 0 88 41t30 91q0 44 -6 68.5t-18 52.5h122q8 -14 18 -45.5t10 -87.5q0 -58 -31.5 -107t-83.5 -79t-115 -30zM359 934l-61 83l303 251l100 -124z" />
    <glyph glyph-name="uni1EE3" unicode="&#x1ee3;" horiz-adv-x="1003" 
d="M485 -24q-127 0 -225.5 57t-154.5 154.5t-56 220.5t56 222t154.5 157t225.5 58q126 0 223.5 -58t152.5 -157t55 -222t-55 -220.5t-152.5 -154.5t-223.5 -57zM485 125q80 0 139.5 37t92.5 101.5t33 145.5t-33 146t-92.5 103t-139.5 38q-81 0 -141 -38t-93.5 -103
t-33.5 -146t33.5 -145.5t93.5 -101.5t141 -37zM808 656q-31 0 -57.5 8.5t-49.5 21.5v98q15 -13 39 -22.5t54 -9.5q58 0 88 41t30 91q0 44 -6 68.5t-18 52.5h122q8 -14 18 -45.5t10 -87.5q0 -58 -31.5 -107t-83.5 -79t-115 -30zM482 -434q-38 0 -65 27.5t-27 64.5t27 65
t65 28t65.5 -27.5t27.5 -65.5t-27.5 -65t-65.5 -27z" />
    <glyph glyph-name="uni1EDD" unicode="&#x1edd;" horiz-adv-x="1003" 
d="M485 -24q-127 0 -225.5 57t-154.5 154.5t-56 220.5t56 222t154.5 157t225.5 58q126 0 223.5 -58t152.5 -157t55 -222t-55 -220.5t-152.5 -154.5t-223.5 -57zM485 125q80 0 139.5 37t92.5 101.5t33 145.5t-33 146t-92.5 103t-139.5 38q-81 0 -141 -38t-93.5 -103
t-33.5 -146t33.5 -145.5t93.5 -101.5t141 -37zM808 656q-31 0 -57.5 8.5t-49.5 21.5v98q15 -13 39 -22.5t54 -9.5q58 0 88 41t30 91q0 44 -6 68.5t-18 52.5h122q8 -14 18 -45.5t10 -87.5q0 -58 -31.5 -107t-83.5 -79t-115 -30zM639 974l-341 209l98 124l306 -251z" />
    <glyph glyph-name="uni1EDF" unicode="&#x1edf;" horiz-adv-x="1003" 
d="M485 -24q-127 0 -225.5 57t-154.5 154.5t-56 220.5t56 222t154.5 157t225.5 58q126 0 223.5 -58t152.5 -157t55 -222t-55 -220.5t-152.5 -154.5t-223.5 -57zM485 125q80 0 139.5 37t92.5 101.5t33 145.5t-33 146t-92.5 103t-139.5 38q-81 0 -141 -38t-93.5 -103
t-33.5 -146t33.5 -145.5t93.5 -101.5t141 -37zM808 656q-31 0 -57.5 8.5t-49.5 21.5v98q15 -13 39 -22.5t54 -9.5q58 0 88 41t30 91q0 44 -6 68.5t-18 52.5h122q8 -14 18 -45.5t10 -87.5q0 -58 -31.5 -107t-83.5 -79t-115 -30zM459 872l-54 80q26 6 65.5 27t71 56t31.5 83
q0 49 -20 70.5t-50 27.5t-61 6q-43 0 -92.5 -16.5t-79.5 -31.5v105q18 12 67 30t133 18q57 0 108 -17.5t83.5 -59.5t32.5 -117q0 -58 -24.5 -102t-62 -75.5t-77 -51.5t-71.5 -32z" />
    <glyph glyph-name="uni1EE1" unicode="&#x1ee1;" horiz-adv-x="1003" 
d="M485 -24q-127 0 -225.5 57t-154.5 154.5t-56 220.5t56 222t154.5 157t225.5 58q126 0 223.5 -58t152.5 -157t55 -222t-55 -220.5t-152.5 -154.5t-223.5 -57zM485 125q80 0 139.5 37t92.5 101.5t33 145.5t-33 146t-92.5 103t-139.5 38q-81 0 -141 -38t-93.5 -103
t-33.5 -146t33.5 -145.5t93.5 -101.5t141 -37zM808 656q-31 0 -57.5 8.5t-49.5 21.5v98q15 -13 39 -22.5t54 -9.5q58 0 88 41t30 91q0 44 -6 68.5t-18 52.5h122q8 -14 18 -45.5t10 -87.5q0 -58 -31.5 -107t-83.5 -79t-115 -30zM166 1004q10 46 34.5 94t64 81.5t92.5 33.5
q61 0 103 -19t79 -38t82 -19q35 0 56 26t27 50h126q-10 -44 -35.5 -92.5t-65 -82.5t-92.5 -34q-61 0 -104 19t-79 38t-76 19q-33 0 -55.5 -25.5t-30.5 -50.5h-126z" />
    <glyph glyph-name="ohungarumlaut" unicode="&#x151;" horiz-adv-x="994" 
d="M485 -24q-127 0 -225.5 57t-154.5 154.5t-56 220.5t56 222t154.5 157t225.5 58q126 0 223.5 -58t152.5 -157t55 -222t-55 -220.5t-152.5 -154.5t-223.5 -57zM485 125q80 0 139.5 37t92.5 101.5t33 145.5t-33 146t-92.5 103t-139.5 38q-81 0 -141 -38t-93.5 -103
t-33.5 -146t33.5 -145.5t93.5 -101.5t141 -37zM625 969l-63 77l269 293l94 -118zM283 969l-62 77l268 293l94 -118z" />
    <glyph glyph-name="uni020F" unicode="&#x20f;" horiz-adv-x="1003" 
d="M485 -24q-127 0 -225.5 57t-154.5 154.5t-56 220.5t56 222t154.5 157t225.5 58q126 0 223.5 -58t152.5 -157t55 -222t-55 -220.5t-152.5 -154.5t-223.5 -57zM485 125q80 0 139.5 37t92.5 101.5t33 145.5t-33 146t-92.5 103t-139.5 38q-81 0 -141 -38t-93.5 -103
t-33.5 -146t33.5 -145.5t93.5 -101.5t141 -37zM325 951l-138 34q7 57 43.5 110t100.5 86.5t151 33.5q86 0 149.5 -33t101 -85t43.5 -112l-137 -34q-4 32 -23 65.5t-52 56.5t-82 23t-82 -23t-51.5 -56.5t-23.5 -65.5z" />
    <glyph glyph-name="omacron" unicode="&#x14d;" horiz-adv-x="994" 
d="M485 -24q-127 0 -225.5 57t-154.5 154.5t-56 220.5t56 222t154.5 157t225.5 58q126 0 223.5 -58t152.5 -157t55 -222t-55 -220.5t-152.5 -154.5t-223.5 -57zM485 125q80 0 139.5 37t92.5 101.5t33 145.5t-33 146t-92.5 103t-139.5 38q-81 0 -141 -38t-93.5 -103
t-33.5 -146t33.5 -145.5t93.5 -101.5t141 -37zM186 1049v122h587v-122h-587z" />
    <glyph glyph-name="uni01EB" unicode="&#x1eb;" horiz-adv-x="1003" 
d="M485 -24q-127 0 -225.5 57t-154.5 154.5t-56 220.5t56 222t154.5 157t225.5 58q126 0 223.5 -58t152.5 -157t55 -222t-55 -220.5t-152.5 -154.5t-223.5 -57zM485 125q80 0 139.5 37t92.5 101.5t33 145.5t-33 146t-92.5 103t-139.5 38q-81 0 -141 -38t-93.5 -103
t-33.5 -146t33.5 -145.5t93.5 -101.5t141 -37zM589 -427q-42 0 -87.5 15t-77 53.5t-31.5 107.5q0 50 28.5 104.5t70 104t79.5 83.5l64 -41q-27 -27 -57 -66.5t-51 -84t-21 -85.5q0 -50 32 -70t72 -20t71 20.5t46 42.5l81 -62q-23 -38 -85 -70t-134 -32z" />
    <glyph glyph-name="oslash" unicode="&#xf8;" horiz-adv-x="994" 
d="M863 859l62 -56l-823 -835l-61 56zM485 -24q-127 0 -225.5 57t-154.5 154.5t-56 220.5t56 222t154.5 157t225.5 58q126 0 223.5 -58t152.5 -157t55 -222t-55 -220.5t-152.5 -154.5t-223.5 -57zM485 125q80 0 139.5 37t92.5 101.5t33 145.5t-33 146t-92.5 103t-139.5 38
q-81 0 -141 -38t-93.5 -103t-33.5 -146t33.5 -145.5t93.5 -101.5t141 -37z" />
    <glyph glyph-name="oslashacute" unicode="&#x1ff;" horiz-adv-x="994" 
d="M863 859l62 -56l-823 -835l-61 56zM485 -24q-127 0 -225.5 57t-154.5 154.5t-56 220.5t56 222t154.5 157t225.5 58q126 0 223.5 -58t152.5 -157t55 -222t-55 -220.5t-152.5 -154.5t-223.5 -57zM485 125q80 0 139.5 37t92.5 101.5t33 145.5t-33 146t-92.5 103t-139.5 38
q-81 0 -141 -38t-93.5 -103t-33.5 -146t33.5 -145.5t93.5 -101.5t141 -37zM359 934l-61 83l303 251l100 -124z" />
    <glyph glyph-name="otilde" unicode="&#xf5;" horiz-adv-x="994" 
d="M485 -24q-127 0 -225.5 57t-154.5 154.5t-56 220.5t56 222t154.5 157t225.5 58q126 0 223.5 -58t152.5 -157t55 -222t-55 -220.5t-152.5 -154.5t-223.5 -57zM485 125q80 0 139.5 37t92.5 101.5t33 145.5t-33 146t-92.5 103t-139.5 38q-81 0 -141 -38t-93.5 -103
t-33.5 -146t33.5 -145.5t93.5 -101.5t141 -37zM145 1018q10 45 34.5 93t64 82t92.5 34q61 0 103 -19t79 -38t82 -19q35 0 56 26t27 50h126q-10 -45 -35.5 -93.5t-65 -82t-92.5 -33.5q-61 0 -104 19t-79 37.5t-76 18.5q-33 0 -55.5 -25.5t-30.5 -49.5h-126z" />
    <glyph glyph-name="uni022D" unicode="&#x22d;" horiz-adv-x="1003" 
d="M485 -24q-127 0 -225.5 57t-154.5 154.5t-56 220.5t56 222t154.5 157t225.5 58q126 0 223.5 -58t152.5 -157t55 -222t-55 -220.5t-152.5 -154.5t-223.5 -57zM485 125q80 0 139.5 37t92.5 101.5t33 145.5t-33 146t-92.5 103t-139.5 38q-81 0 -141 -38t-93.5 -103
t-33.5 -146t33.5 -145.5t93.5 -101.5t141 -37zM166 1004q10 46 34.5 94t64 81.5t92.5 33.5q61 0 103 -19t79 -38t82 -19q35 0 56 26t27 50h126q-10 -44 -35.5 -92.5t-65 -82.5t-92.5 -34q-61 0 -104 19t-79 38t-76 19q-33 0 -55.5 -25.5t-30.5 -50.5h-126zM208 1329v122h587
v-122h-587z" />
    <glyph glyph-name="oe" unicode="&#x153;" horiz-adv-x="1665" 
d="M485 -24q-127 0 -225.5 57t-154.5 154.5t-56 220.5t56 222t154.5 157t225.5 58q126 0 223.5 -58t152.5 -157t55 -222t-55 -220.5t-152.5 -154.5t-223.5 -57zM485 125q80 0 139.5 37t92.5 101.5t33 145.5t-33 146t-92.5 103t-139.5 38q-81 0 -141 -38t-93.5 -103
t-33.5 -146t33.5 -145.5t93.5 -101.5t141 -37zM924 375q1 -74 32 -135t92.5 -97t151.5 -36q76 0 129.5 22.5t87.5 54t49 56.5l85 -105q-33 -48 -80.5 -84t-115.5 -55.5t-166 -19.5q-132 0 -228.5 56.5t-148.5 157t-52 230.5q0 120 49 216.5t142.5 152.5t225.5 56
q121 0 210.5 -50.5t139 -142.5t49.5 -220q0 -8 -1 -28.5t-2 -28.5h-649zM1410 506q-1 41 -23.5 90t-72.5 84t-135 35q-88 0 -141.5 -34t-78.5 -82.5t-29 -92.5h480z" />
    <glyph glyph-name="p" unicode="p" horiz-adv-x="1072" 
d="M281 -416h-173v1237h176v-154q9 31 50 73t110.5 73.5t159.5 31.5q114 0 202.5 -54.5t139 -152t50.5 -228.5t-52 -228.5t-141.5 -151.5t-204.5 -54q-93 0 -162.5 35t-109 79t-45.5 70v-576zM824 410q0 89 -36.5 154t-96.5 101t-130 36q-77 0 -140 -36.5t-100 -102
t-37 -152.5t37 -152.5t100 -101.5t140 -36q70 0 130 35.5t96.5 100.5t36.5 154z" />
    <glyph glyph-name="thorn" unicode="&#xfe;" horiz-adv-x="1048" 
d="M101 0h173v-416h-173v416zM101 0v1376h176v-709q6 31 47 73t110 73.5t159 31.5q115 0 204 -54.5t140.5 -152t51.5 -228.5t-51.5 -228.5t-140.5 -151.5t-204 -54q-85 0 -153.5 32t-111.5 75t-54 77v-160h-173zM816 410q0 89 -36 154t-95.5 101t-130.5 36q-77 0 -140 -36.5
t-100 -102t-37 -152.5t37 -152.5t100 -101.5t140 -36q71 0 130.5 35.5t95.5 100.5t36 154z" />
    <glyph glyph-name="q" unicode="q" horiz-adv-x="1072" 
d="M791 -416v576q-5 -26 -45 -70t-109 -79t-163 -35q-114 0 -204 54t-142 151.5t-52 228.5t50.5 228.5t139.5 152t202 54.5q91 0 160 -31.5t110.5 -73.5t49.5 -73v154h176v-1237h-173zM511 120q78 0 140.5 36t99.5 101.5t37 152.5t-37 152.5t-99.5 102t-140.5 36.5
q-70 0 -130 -36t-96.5 -101t-36.5 -154t36.5 -154t96.5 -100.5t130 -35.5z" />
    <glyph glyph-name="r" unicode="r" horiz-adv-x="700" 
d="M276 0h-173v821h173v-142h-5q5 26 37 65t88 70t134 31q57 0 100.5 -15.5t61.5 -30.5l-71 -144q-14 14 -49 28.5t-87 14.5q-66 0 -113 -41t-71.5 -98.5t-24.5 -106.5v-452z" />
    <glyph glyph-name="racute" unicode="&#x155;" horiz-adv-x="735" 
d="M276 0h-173v821h173v-142h-5q5 26 37 65t88 70t134 31q57 0 100.5 -15.5t61.5 -30.5l-71 -144q-14 14 -49 28.5t-87 14.5q-66 0 -113 -41t-71.5 -98.5t-24.5 -106.5v-452zM275 974l-61 82l303 251l100 -124z" />
    <glyph glyph-name="rcaron" unicode="&#x159;" horiz-adv-x="735" 
d="M276 0h-173v821h173v-142h-5q5 26 37 65t88 70t134 31q57 0 100.5 -15.5t61.5 -30.5l-71 -144q-14 14 -49 28.5t-87 14.5q-66 0 -113 -41t-71.5 -98.5t-24.5 -106.5v-452zM349 961l-299 219l76 102l223 -162l224 163l76 -102z" />
    <glyph glyph-name="uni0157" unicode="&#x157;" horiz-adv-x="700" 
d="M276 0h-173v821h173v-142h-5q5 26 37 65t88 70t134 31q57 0 100.5 -15.5t61.5 -30.5l-71 -144q-14 14 -49 28.5t-87 14.5q-66 0 -113 -41t-71.5 -98.5t-24.5 -106.5v-452zM305 -469l-52 53q36 17 78 53.5t53 81.5q-17 -8 -41 -8q-40 0 -69.5 30t-29.5 75q0 49 33 81
t80 32q49 0 83.5 -34t34.5 -92q0 -59 -24 -112t-62.5 -94.5t-83.5 -65.5z" />
    <glyph glyph-name="uni0211" unicode="&#x211;" horiz-adv-x="700" 
d="M276 0h-173v821h173v-142h-5q5 26 37 65t88 70t134 31q57 0 100.5 -15.5t61.5 -30.5l-71 -144q-14 14 -49 28.5t-87 14.5q-66 0 -113 -41t-71.5 -98.5t-24.5 -106.5v-452zM593 974l-341 209l98 124l305 -251zM220 974l-341 209l98 124l306 -251z" />
    <glyph glyph-name="uni0213" unicode="&#x213;" horiz-adv-x="700" 
d="M276 0h-173v821h173v-142h-5q5 26 37 65t88 70t134 31q57 0 100.5 -15.5t61.5 -30.5l-71 -144q-14 14 -49 28.5t-87 14.5q-66 0 -113 -41t-71.5 -98.5t-24.5 -106.5v-452zM189 951l-138 34q7 57 43.5 110t100.5 86.5t151 33.5q86 0 149.5 -33t101 -85t43.5 -112l-137 -34
q-4 32 -23 65.5t-52 56.5t-82 23t-82 -23t-51.5 -56.5t-23.5 -65.5z" />
    <glyph glyph-name="s" unicode="s" horiz-adv-x="805" 
d="M413 845q64 0 119.5 -13t96 -31t57.5 -32l-69 -110q-20 18 -72 40.5t-116 22.5q-70 0 -119 -27.5t-49 -79.5t50.5 -82.5t135.5 -50.5q68 -16 127.5 -43t96.5 -74.5t37 -126.5q0 -72 -30 -122.5t-81 -81t-114 -44.5t-128 -14q-76 0 -137 15.5t-102.5 37t-60.5 37.5l69 124
q26 -25 85.5 -53t135.5 -28q84 0 136 35.5t52 92.5q0 43 -25 69t-67 42t-92 28q-48 11 -93.5 29t-83 46.5t-59.5 70t-22 97.5q0 71 45 121.5t118 77.5t159 27z" />
    <glyph glyph-name="sacute" unicode="&#x15b;" horiz-adv-x="805" 
d="M413 845q64 0 119.5 -13t96 -31t57.5 -32l-69 -110q-20 18 -72 40.5t-116 22.5q-70 0 -119 -27.5t-49 -79.5t50.5 -82.5t135.5 -50.5q68 -16 127.5 -43t96.5 -74.5t37 -126.5q0 -72 -30 -122.5t-81 -81t-114 -44.5t-128 -14q-76 0 -137 15.5t-102.5 37t-60.5 37.5l69 124
q26 -25 85.5 -53t135.5 -28q84 0 136 35.5t52 92.5q0 43 -25 69t-67 42t-92 28q-48 11 -93.5 29t-83 46.5t-59.5 70t-22 97.5q0 71 45 121.5t118 77.5t159 27zM286 974l-61 82l303 251l100 -124z" />
    <glyph glyph-name="scaron" unicode="&#x161;" horiz-adv-x="805" 
d="M413 845q64 0 119.5 -13t96 -31t57.5 -32l-69 -110q-20 18 -72 40.5t-116 22.5q-70 0 -119 -27.5t-49 -79.5t50.5 -82.5t135.5 -50.5q68 -16 127.5 -43t96.5 -74.5t37 -126.5q0 -72 -30 -122.5t-81 -81t-114 -44.5t-128 -14q-76 0 -137 15.5t-102.5 37t-60.5 37.5l69 124
q26 -25 85.5 -53t135.5 -28q84 0 136 35.5t52 92.5q0 43 -25 69t-67 42t-92 28q-48 11 -93.5 29t-83 46.5t-59.5 70t-22 97.5q0 71 45 121.5t118 77.5t159 27zM412 961l-299 219l76 102l223 -162l224 163l76 -102z" />
    <glyph glyph-name="scedilla" unicode="&#x15f;" horiz-adv-x="805" 
d="M413 845q64 0 119.5 -13t96 -31t57.5 -32l-69 -110q-20 18 -72 40.5t-116 22.5q-70 0 -119 -27.5t-49 -79.5t50.5 -82.5t135.5 -50.5q68 -16 127.5 -43t96.5 -74.5t37 -126.5q0 -72 -30 -122.5t-81 -81t-114 -44.5t-128 -14q-76 0 -137 15.5t-102.5 37t-60.5 37.5l69 124
q26 -25 85.5 -53t135.5 -28q84 0 136 35.5t52 92.5q0 43 -25 69t-67 42t-92 28q-48 11 -93.5 29t-83 46.5t-59.5 70t-22 97.5q0 71 45 121.5t118 77.5t159 27zM392 -425q-73 0 -130.5 22.5t-82.5 43.5l69 81q19 -17 55.5 -34.5t77.5 -17.5q48 0 80.5 21.5t32.5 56.5
q0 38 -27.5 56t-69.5 18q-31 0 -56 -4.5t-36 -9.5l-29 17l77 217l78 -32l-46 -128q48 10 101 0.5t90 -41t37 -86.5q0 -59 -32.5 -99t-83 -60.5t-105.5 -20.5z" />
    <glyph glyph-name="scircumflex" unicode="&#x15d;" horiz-adv-x="805" 
d="M413 845q64 0 119.5 -13t96 -31t57.5 -32l-69 -110q-20 18 -72 40.5t-116 22.5q-70 0 -119 -27.5t-49 -79.5t50.5 -82.5t135.5 -50.5q68 -16 127.5 -43t96.5 -74.5t37 -126.5q0 -72 -30 -122.5t-81 -81t-114 -44.5t-128 -14q-76 0 -137 15.5t-102.5 37t-60.5 37.5l69 124
q26 -25 85.5 -53t135.5 -28q84 0 136 35.5t52 92.5q0 43 -25 69t-67 42t-92 28q-48 11 -93.5 29t-83 46.5t-59.5 70t-22 97.5q0 71 45 121.5t118 77.5t159 27zM620 915l-224 164l-223 -163l-76 101l299 219l300 -219z" />
    <glyph glyph-name="uni0219" unicode="&#x219;" horiz-adv-x="805" 
d="M413 845q64 0 119.5 -13t96 -31t57.5 -32l-69 -110q-20 18 -72 40.5t-116 22.5q-70 0 -119 -27.5t-49 -79.5t50.5 -82.5t135.5 -50.5q68 -16 127.5 -43t96.5 -74.5t37 -126.5q0 -72 -30 -122.5t-81 -81t-114 -44.5t-128 -14q-76 0 -137 15.5t-102.5 37t-60.5 37.5l69 124
q26 -25 85.5 -53t135.5 -28q84 0 136 35.5t52 92.5q0 43 -25 69t-67 42t-92 28q-48 11 -93.5 29t-83 46.5t-59.5 70t-22 97.5q0 71 45 121.5t118 77.5t159 27zM344 -469l-52 53q36 17 78 53.5t53 81.5q-17 -8 -41 -8q-40 0 -69.5 30t-29.5 75q0 49 33 81t80 32
q49 0 83.5 -34t34.5 -92q0 -59 -24 -112t-62.5 -94.5t-83.5 -65.5z" />
    <glyph glyph-name="germandbls" unicode="&#xdf;" horiz-adv-x="1018" 
d="M441 127q102 0 169 36t100.5 96.5t33.5 134.5q0 129 -81 197t-222 68v131q119 0 192.5 71t73.5 185q0 78 -27.5 124t-74 66.5t-103.5 20.5q-78 0 -131 -41t-79 -106.5t-26 -140.5v-969h-163v962q0 135 51 233.5t140.5 151.5t204.5 53q164 0 264.5 -90t100.5 -262
q0 -84 -35.5 -150t-88 -109.5t-101.5 -57.5q65 -12 128.5 -56.5t106 -117.5t42.5 -171q0 -126 -59.5 -218t-166 -142t-249.5 -50v151z" />
    <glyph glyph-name="t" unicode="t" horiz-adv-x="662" 
d="M35 821h161v337h173v-337h211v-149h-211v-406q0 -72 25.5 -106t68.5 -34q38 0 59 14t25 19l69 -128q-6 -5 -32 -19t-67 -25t-96 -11q-96 0 -160.5 58.5t-64.5 185.5v452h-161v149z" />
    <glyph glyph-name="tbar" unicode="&#x167;" horiz-adv-x="656" 
d="M36 523h544v-86h-544v86zM35 821h161v337h173v-337h211v-149h-211v-406q0 -72 25.5 -106t68.5 -34q38 0 59 14t25 19l69 -128q-6 -5 -32 -19t-67 -25t-96 -11q-96 0 -160.5 58.5t-64.5 185.5v452h-161v149z" />
    <glyph glyph-name="tcaron" unicode="&#x165;" horiz-adv-x="656" 
d="M421 -24q-96 0 -160.5 58.5t-64.5 185.5v452h-161v149h161v337h173v-337h211v-149h-211v-406q0 -72 25.5 -106t68.5 -34q38 0 59 14t25 19l69 -128q-6 -5 -32 -19t-67 -25t-96 -11zM657 966l-40 42q28 13 61 41.5t42 64.5q-13 -7 -32 -7q-32 0 -54.5 23.5t-22.5 57.5
q0 38 25 63t62 25q38 0 64.5 -26.5t26.5 -71.5t-18 -86.5t-48.5 -73.5t-65.5 -52z" />
    <glyph glyph-name="uni0163" unicode="&#x163;" horiz-adv-x="662" 
d="M35 821h161v337h173v-337h211v-149h-211v-406q0 -72 25.5 -106t68.5 -34q38 0 59 14t25 19l69 -128q-6 -5 -32 -19t-67 -25t-96 -11q-96 0 -160.5 58.5t-64.5 185.5v452h-161v149zM425 -433q-73 0 -130.5 22.5t-82.5 43.5l69 81q19 -17 55.5 -34.5t77.5 -17.5
q48 0 80.5 21.5t32.5 56.5q0 38 -27.5 56t-69.5 18q-31 0 -56 -4.5t-36 -9.5l-29 17l77 217l78 -32l-46 -128q48 10 101 0.5t90 -41t37 -86.5q0 -59 -32.5 -99t-83 -60.5t-105.5 -20.5z" />
    <glyph glyph-name="uni021B" unicode="&#x21b;" horiz-adv-x="662" 
d="M35 821h161v337h173v-337h211v-149h-211v-406q0 -72 25.5 -106t68.5 -34q38 0 59 14t25 19l69 -128q-6 -5 -32 -19t-67 -25t-96 -11q-96 0 -160.5 58.5t-64.5 185.5v452h-161v149zM369 -477l-52 53q36 17 78 53.5t53 81.5q-17 -8 -41 -8q-40 0 -69.5 30t-29.5 75
q0 49 33 81t80 32q49 0 83.5 -34t34.5 -92q0 -59 -24 -112t-62.5 -94.5t-83.5 -65.5z" />
    <glyph glyph-name="u" unicode="u" horiz-adv-x="1023" 
d="M268 407q0 -129 55.5 -205.5t170.5 -76.5q116 0 171 76.5t55 205.5v414h172v-438q0 -120 -46.5 -212t-135 -143.5t-216.5 -51.5q-127 0 -215.5 51.5t-135 143.5t-46.5 212v438h171v-414z" />
    <glyph glyph-name="uacute" unicode="&#xfa;" horiz-adv-x="1023" 
d="M268 407q0 -129 55.5 -205.5t170.5 -76.5q116 0 171 76.5t55 205.5v414h172v-438q0 -120 -46.5 -212t-135 -143.5t-216.5 -51.5q-127 0 -215.5 51.5t-135 143.5t-46.5 212v438h171v-414zM370 934l-61 83l303 251l100 -124z" />
    <glyph glyph-name="ubreve" unicode="&#x16d;" horiz-adv-x="1023" 
d="M268 407q0 -129 55.5 -205.5t170.5 -76.5q116 0 171 76.5t55 205.5v414h172v-438q0 -120 -46.5 -212t-135 -143.5t-216.5 -51.5q-127 0 -215.5 51.5t-135 143.5t-46.5 212v438h171v-414zM494 954q-86 0 -149.5 33t-101 85t-44.5 112l137 34q5 -31 23.5 -65t52 -57
t82.5 -23q48 0 81.5 23t52 57t22.5 65l138 -34q-6 -57 -43 -110t-100.5 -86.5t-150.5 -33.5z" />
    <glyph glyph-name="uni01D4" unicode="&#x1d4;" horiz-adv-x="1023" 
d="M268 407q0 -129 55.5 -205.5t170.5 -76.5q116 0 171 76.5t55 205.5v414h172v-438q0 -120 -46.5 -212t-135 -143.5t-216.5 -51.5q-127 0 -215.5 51.5t-135 143.5t-46.5 212v438h171v-414zM510 961l-299 219l76 102l223 -162l224 163l76 -102z" />
    <glyph glyph-name="ucircumflex" unicode="&#xfb;" horiz-adv-x="1023" 
d="M268 407q0 -129 55.5 -205.5t170.5 -76.5q116 0 171 76.5t55 205.5v414h172v-438q0 -120 -46.5 -212t-135 -143.5t-216.5 -51.5q-127 0 -215.5 51.5t-135 143.5t-46.5 212v438h171v-414zM718 915l-224 164l-223 -163l-76 101l299 219l300 -219z" />
    <glyph glyph-name="uni0215" unicode="&#x215;" horiz-adv-x="1023" 
d="M268 407q0 -129 55.5 -205.5t170.5 -76.5q116 0 171 76.5t55 205.5v414h172v-438q0 -120 -46.5 -212t-135 -143.5t-216.5 -51.5q-127 0 -215.5 51.5t-135 143.5t-46.5 212v438h171v-414zM741 974l-341 209l98 124l305 -251zM368 974l-341 209l98 124l306 -251z" />
    <glyph glyph-name="udieresis" unicode="&#xfc;" horiz-adv-x="1023" 
d="M268 407q0 -129 55.5 -205.5t170.5 -76.5q116 0 171 76.5t55 205.5v414h172v-438q0 -120 -46.5 -212t-135 -143.5t-216.5 -51.5q-127 0 -215.5 51.5t-135 143.5t-46.5 212v438h171v-414zM704 992q-45 0 -76 32t-31 75t31 75.5t76 32.5q43 0 75 -32t32 -76t-32 -75.5
t-75 -31.5zM314 992q-44 0 -75.5 32t-31.5 75t31.5 75.5t75.5 32.5q43 0 75 -32t32 -76t-32 -75.5t-75 -31.5z" />
    <glyph glyph-name="uni01D8" unicode="&#x1d8;" horiz-adv-x="1023" 
d="M268 407q0 -129 55.5 -205.5t170.5 -76.5q116 0 171 76.5t55 205.5v414h172v-438q0 -120 -46.5 -212t-135 -143.5t-216.5 -51.5q-127 0 -215.5 51.5t-135 143.5t-46.5 212v438h171v-414zM704 992q-45 0 -76 32t-31 75t31 75.5t76 32.5q43 0 75 -32t32 -76t-32 -75.5
t-75 -31.5zM314 992q-44 0 -75.5 32t-31.5 75t31.5 75.5t75.5 32.5q43 0 75 -32t32 -76t-32 -75.5t-75 -31.5zM370 1232l-61 83l303 251l100 -124z" />
    <glyph glyph-name="uni01DA" unicode="&#x1da;" horiz-adv-x="1023" 
d="M268 407q0 -129 55.5 -205.5t170.5 -76.5q116 0 171 76.5t55 205.5v414h172v-438q0 -120 -46.5 -212t-135 -143.5t-216.5 -51.5q-127 0 -215.5 51.5t-135 143.5t-46.5 212v438h171v-414zM704 992q-45 0 -76 32t-31 75t31 75.5t76 32.5q43 0 75 -32t32 -76t-32 -75.5
t-75 -31.5zM314 992q-44 0 -75.5 32t-31.5 75t31.5 75.5t75.5 32.5q43 0 75 -32t32 -76t-32 -75.5t-75 -31.5zM510 1260l-299 219l76 102l223 -162l224 163l76 -102z" />
    <glyph glyph-name="uni01DC" unicode="&#x1dc;" horiz-adv-x="1023" 
d="M268 407q0 -129 55.5 -205.5t170.5 -76.5q116 0 171 76.5t55 205.5v414h172v-438q0 -120 -46.5 -212t-135 -143.5t-216.5 -51.5q-127 0 -215.5 51.5t-135 143.5t-46.5 212v438h171v-414zM704 992q-45 0 -76 32t-31 75t31 75.5t76 32.5q43 0 75 -32t32 -76t-32 -75.5
t-75 -31.5zM314 992q-44 0 -75.5 32t-31.5 75t31.5 75.5t75.5 32.5q43 0 75 -32t32 -76t-32 -75.5t-75 -31.5zM650 1273l-341 209l98 124l306 -251z" />
    <glyph glyph-name="uni01D6" unicode="&#x1d6;" horiz-adv-x="1023" 
d="M268 407q0 -129 55.5 -205.5t170.5 -76.5q116 0 171 76.5t55 205.5v414h172v-438q0 -120 -46.5 -212t-135 -143.5t-216.5 -51.5q-127 0 -215.5 51.5t-135 143.5t-46.5 212v438h171v-414zM704 992q-45 0 -76 32t-31 75t31 75.5t76 32.5q43 0 75 -32t32 -76t-32 -75.5
t-75 -31.5zM314 992q-44 0 -75.5 32t-31.5 75t31.5 75.5t75.5 32.5q43 0 75 -32t32 -76t-32 -75.5t-75 -31.5zM221 1314v122h587v-122h-587z" />
    <glyph glyph-name="uni1EE5" unicode="&#x1ee5;" horiz-adv-x="1023" 
d="M268 407q0 -129 55.5 -205.5t170.5 -76.5q116 0 171 76.5t55 205.5v414h172v-438q0 -120 -46.5 -212t-135 -143.5t-216.5 -51.5q-127 0 -215.5 51.5t-135 143.5t-46.5 212v438h171v-414zM494 -304q-38 0 -65 27.5t-27 64.5t27 65t65 28t65.5 -27.5t27.5 -65.5t-27.5 -65
t-65.5 -27z" />
    <glyph glyph-name="ugrave" unicode="&#xf9;" horiz-adv-x="1023" 
d="M268 407q0 -129 55.5 -205.5t170.5 -76.5q116 0 171 76.5t55 205.5v414h172v-438q0 -120 -46.5 -212t-135 -143.5t-216.5 -51.5q-127 0 -215.5 51.5t-135 143.5t-46.5 212v438h171v-414zM650 974l-341 209l98 124l306 -251z" />
    <glyph glyph-name="uni1EE7" unicode="&#x1ee7;" horiz-adv-x="1023" 
d="M268 407q0 -129 55.5 -205.5t170.5 -76.5q116 0 171 76.5t55 205.5v414h172v-438q0 -120 -46.5 -212t-135 -143.5t-216.5 -51.5q-127 0 -215.5 51.5t-135 143.5t-46.5 212v438h171v-414zM471 872l-54 80q26 6 65.5 27t71 56t31.5 83q0 49 -20 70.5t-50 27.5t-61 6
q-43 0 -92.5 -16.5t-79.5 -31.5v105q18 12 67 30t133 18q57 0 108 -17.5t83.5 -59.5t32.5 -117q0 -58 -24.5 -102t-62 -75.5t-77 -51.5t-71.5 -32z" />
    <glyph glyph-name="uhorn" unicode="&#x1b0;" horiz-adv-x="1222" 
d="M268 407q0 -129 55.5 -205.5t170.5 -76.5q116 0 171 76.5t55 205.5v414h172v-438q0 -120 -46.5 -212t-135 -143.5t-216.5 -51.5q-127 0 -215.5 51.5t-135 143.5t-46.5 212v438h171v-414zM999 693q-31 0 -57.5 8.5t-49.5 21.5v98q15 -13 39 -22.5t54 -9.5q58 0 88 41
t30 91q0 44 -6 68.5t-18 52.5h122q8 -14 18 -45.5t10 -87.5q0 -58 -31.5 -107t-83.5 -79t-115 -30z" />
    <glyph glyph-name="uni1EE9" unicode="&#x1ee9;" horiz-adv-x="1222" 
d="M268 407q0 -129 55.5 -205.5t170.5 -76.5q116 0 171 76.5t55 205.5v414h172v-438q0 -120 -46.5 -212t-135 -143.5t-216.5 -51.5q-127 0 -215.5 51.5t-135 143.5t-46.5 212v438h171v-414zM999 693q-31 0 -57.5 8.5t-49.5 21.5v98q15 -13 39 -22.5t54 -9.5q58 0 88 41
t30 91q0 44 -6 68.5t-18 52.5h122q8 -14 18 -45.5t10 -87.5q0 -58 -31.5 -107t-83.5 -79t-115 -30zM370 934l-61 83l303 251l100 -124z" />
    <glyph glyph-name="uni1EF1" unicode="&#x1ef1;" horiz-adv-x="1222" 
d="M268 407q0 -129 55.5 -205.5t170.5 -76.5q116 0 171 76.5t55 205.5v414h172v-438q0 -120 -46.5 -212t-135 -143.5t-216.5 -51.5q-127 0 -215.5 51.5t-135 143.5t-46.5 212v438h171v-414zM999 693q-31 0 -57.5 8.5t-49.5 21.5v98q15 -13 39 -22.5t54 -9.5q58 0 88 41
t30 91q0 44 -6 68.5t-18 52.5h122q8 -14 18 -45.5t10 -87.5q0 -58 -31.5 -107t-83.5 -79t-115 -30zM494 -304q-38 0 -65 27.5t-27 64.5t27 65t65 28t65.5 -27.5t27.5 -65.5t-27.5 -65t-65.5 -27z" />
    <glyph glyph-name="uni1EEB" unicode="&#x1eeb;" horiz-adv-x="1222" 
d="M268 407q0 -129 55.5 -205.5t170.5 -76.5q116 0 171 76.5t55 205.5v414h172v-438q0 -120 -46.5 -212t-135 -143.5t-216.5 -51.5q-127 0 -215.5 51.5t-135 143.5t-46.5 212v438h171v-414zM999 693q-31 0 -57.5 8.5t-49.5 21.5v98q15 -13 39 -22.5t54 -9.5q58 0 88 41
t30 91q0 44 -6 68.5t-18 52.5h122q8 -14 18 -45.5t10 -87.5q0 -58 -31.5 -107t-83.5 -79t-115 -30zM650 974l-341 209l98 124l306 -251z" />
    <glyph glyph-name="uni1EED" unicode="&#x1eed;" horiz-adv-x="1222" 
d="M268 407q0 -129 55.5 -205.5t170.5 -76.5q116 0 171 76.5t55 205.5v414h172v-438q0 -120 -46.5 -212t-135 -143.5t-216.5 -51.5q-127 0 -215.5 51.5t-135 143.5t-46.5 212v438h171v-414zM999 693q-31 0 -57.5 8.5t-49.5 21.5v98q15 -13 39 -22.5t54 -9.5q58 0 88 41
t30 91q0 44 -6 68.5t-18 52.5h122q8 -14 18 -45.5t10 -87.5q0 -58 -31.5 -107t-83.5 -79t-115 -30zM471 872l-54 80q26 6 65.5 27t71 56t31.5 83q0 49 -20 70.5t-50 27.5t-61 6q-43 0 -92.5 -16.5t-79.5 -31.5v105q18 12 67 30t133 18q57 0 108 -17.5t83.5 -59.5t32.5 -117
q0 -58 -24.5 -102t-62 -75.5t-77 -51.5t-71.5 -32z" />
    <glyph glyph-name="uni1EEF" unicode="&#x1eef;" horiz-adv-x="1222" 
d="M268 407q0 -129 55.5 -205.5t170.5 -76.5q116 0 171 76.5t55 205.5v414h172v-438q0 -120 -46.5 -212t-135 -143.5t-216.5 -51.5q-127 0 -215.5 51.5t-135 143.5t-46.5 212v438h171v-414zM999 693q-31 0 -57.5 8.5t-49.5 21.5v98q15 -13 39 -22.5t54 -9.5q58 0 88 41
t30 91q0 44 -6 68.5t-18 52.5h122q8 -14 18 -45.5t10 -87.5q0 -58 -31.5 -107t-83.5 -79t-115 -30zM178 1004q10 46 34.5 94t64 81.5t92.5 33.5q61 0 103 -19t79 -38t82 -19q35 0 56 26t27 50h126q-10 -44 -35.5 -92.5t-65 -82.5t-92.5 -34q-61 0 -104 19t-79 38t-76 19
q-33 0 -55.5 -25.5t-30.5 -50.5h-126z" />
    <glyph glyph-name="uhungarumlaut" unicode="&#x171;" horiz-adv-x="1023" 
d="M268 407q0 -129 55.5 -205.5t170.5 -76.5q116 0 171 76.5t55 205.5v414h172v-438q0 -120 -46.5 -212t-135 -143.5t-216.5 -51.5q-127 0 -215.5 51.5t-135 143.5t-46.5 212v438h171v-414zM636 969l-63 77l269 293l94 -118zM294 969l-62 77l268 293l94 -118z" />
    <glyph glyph-name="uni0217" unicode="&#x217;" horiz-adv-x="1023" 
d="M268 407q0 -129 55.5 -205.5t170.5 -76.5q116 0 171 76.5t55 205.5v414h172v-438q0 -120 -46.5 -212t-135 -143.5t-216.5 -51.5q-127 0 -215.5 51.5t-135 143.5t-46.5 212v438h171v-414zM336 951l-138 34q7 57 43.5 110t100.5 86.5t151 33.5q86 0 149.5 -33t101 -85
t43.5 -112l-137 -34q-4 32 -23 65.5t-52 56.5t-82 23t-82 -23t-51.5 -56.5t-23.5 -65.5z" />
    <glyph glyph-name="umacron" unicode="&#x16b;" horiz-adv-x="1023" 
d="M268 407q0 -129 55.5 -205.5t170.5 -76.5q116 0 171 76.5t55 205.5v414h172v-438q0 -120 -46.5 -212t-135 -143.5t-216.5 -51.5q-127 0 -215.5 51.5t-135 143.5t-46.5 212v438h171v-414zM186 1049v122h587v-122h-587z" />
    <glyph glyph-name="uogonek" unicode="&#x173;" horiz-adv-x="1023" 
d="M268 407q0 -129 55.5 -205.5t170.5 -76.5q116 0 171 76.5t55 205.5v414h172v-438q0 -120 -46.5 -212t-135 -143.5t-216.5 -51.5q-127 0 -215.5 51.5t-135 143.5t-46.5 212v438h171v-414zM514 -427q-42 0 -87.5 15t-77 53.5t-31.5 107.5q0 50 28.5 104.5t70 104t79.5 83.5
l64 -41q-27 -27 -57 -66.5t-51 -83.5t-21 -84q0 -53 31.5 -72.5t73.5 -19.5q39 0 70 20.5t46 42.5l81 -62q-23 -38 -85 -70t-134 -32z" />
    <glyph glyph-name="uring" unicode="&#x16f;" horiz-adv-x="1023" 
d="M268 407q0 -129 55.5 -205.5t170.5 -76.5q116 0 171 76.5t55 205.5v414h172v-438q0 -120 -46.5 -212t-135 -143.5t-216.5 -51.5q-127 0 -215.5 51.5t-135 143.5t-46.5 212v438h171v-414zM494 925q-92 0 -148.5 51t-56.5 132q0 53 27.5 94t74 65t103.5 24q58 0 104 -24
t73.5 -65t27.5 -94q0 -81 -57.5 -132t-147.5 -51zM494 1019q36 0 61 23.5t25 65.5q0 41 -25 64t-61 23q-34 0 -60 -23t-26 -64q0 -42 25.5 -65.5t60.5 -23.5z" />
    <glyph glyph-name="utilde" unicode="&#x169;" horiz-adv-x="1023" 
d="M268 407q0 -129 55.5 -205.5t170.5 -76.5q116 0 171 76.5t55 205.5v414h172v-438q0 -120 -46.5 -212t-135 -143.5t-216.5 -51.5q-127 0 -215.5 51.5t-135 143.5t-46.5 212v438h171v-414zM178 1004q10 46 34.5 94t64 81.5t92.5 33.5q61 0 103 -19t79 -38t82 -19
q35 0 56 26t27 50h126q-10 -44 -35.5 -92.5t-65 -82.5t-92.5 -34q-61 0 -104 19t-79 38t-76 19q-33 0 -55.5 -25.5t-30.5 -50.5h-126z" />
    <glyph glyph-name="v" unicode="v" horiz-adv-x="991" 
d="M23 821h187l268 -660l268 660h186l-351 -821h-205z" />
    <glyph glyph-name="w" unicode="w" horiz-adv-x="1325" 
d="M646 615l-209 -615h-180l-223 821h185l149 -631l206 615h144l204 -615l150 631h186l-223 -821h-180z" />
    <glyph glyph-name="wacute" unicode="&#x1e83;" horiz-adv-x="1325" 
d="M646 615l-209 -615h-180l-223 821h185l149 -631l206 615h144l204 -615l150 631h186l-223 -821h-180zM522 934l-61 83l303 251l100 -124z" />
    <glyph glyph-name="wcircumflex" unicode="&#x175;" horiz-adv-x="1325" 
d="M646 615l-209 -615h-180l-223 821h185l149 -631l206 615h144l204 -615l150 631h186l-223 -821h-180zM870 915l-224 164l-223 -163l-76 101l299 219l300 -219z" />
    <glyph glyph-name="wdieresis" unicode="&#x1e85;" horiz-adv-x="1325" 
d="M646 615l-209 -615h-180l-223 821h185l149 -631l206 615h144l204 -615l150 631h186l-223 -821h-180zM855 992q-45 0 -76 32t-31 75t31 75.5t76 32.5q43 0 75 -32t32 -76t-32 -75.5t-75 -31.5zM465 992q-44 0 -75.5 32t-31.5 75t31.5 75.5t75.5 32.5q43 0 75 -32t32 -76
t-32 -75.5t-75 -31.5z" />
    <glyph glyph-name="wgrave" unicode="&#x1e81;" horiz-adv-x="1325" 
d="M646 615l-209 -615h-180l-223 821h185l149 -631l206 615h144l204 -615l150 631h186l-223 -821h-180zM802 974l-341 209l98 124l306 -251z" />
    <glyph glyph-name="x" unicode="x" horiz-adv-x="1009" 
d="M590 434l356 -434h-200l-263 327l-262 -327h-189l355 424l-319 397h201l223 -285l227 285h186z" />
    <glyph glyph-name="y" unicode="y" horiz-adv-x="924" 
d="M446 159l277 662h174l-554 -1237h-176l186 416l-338 821h177z" />
    <glyph glyph-name="yacute" unicode="&#xfd;" horiz-adv-x="924" 
d="M446 159l277 662h174l-554 -1237h-176l186 416l-338 821h177zM321 934l-61 83l303 251l100 -124z" />
    <glyph glyph-name="ycircumflex" unicode="&#x177;" horiz-adv-x="924" 
d="M446 159l277 662h174l-554 -1237h-176l186 416l-338 821h177zM669 915l-224 164l-223 -163l-76 101l299 219l300 -219z" />
    <glyph glyph-name="ydieresis" unicode="&#xff;" horiz-adv-x="924" 
d="M446 159l277 662h174l-554 -1237h-176l186 416l-338 821h177zM655 992q-45 0 -76 32t-31 75t31 75.5t76 32.5q43 0 75 -32t32 -76t-32 -75.5t-75 -31.5zM265 992q-44 0 -75.5 32t-31.5 75t31.5 75.5t75.5 32.5q43 0 75 -32t32 -76t-32 -75.5t-75 -31.5z" />
    <glyph glyph-name="uni1EF5" unicode="&#x1ef5;" horiz-adv-x="924" 
d="M446 159l277 662h174l-554 -1237h-176l186 416l-338 821h177zM668 -304q-38 0 -65 27.5t-27 64.5t27 65t65 28t65.5 -27.5t27.5 -65.5t-27.5 -65t-65.5 -27z" />
    <glyph glyph-name="ygrave" unicode="&#x1ef3;" horiz-adv-x="924" 
d="M446 159l277 662h174l-554 -1237h-176l186 416l-338 821h177zM601 974l-341 209l98 124l306 -251z" />
    <glyph glyph-name="uni1EF7" unicode="&#x1ef7;" horiz-adv-x="924" 
d="M446 159l277 662h174l-554 -1237h-176l186 416l-338 821h177zM422 872l-54 80q26 6 65.5 27t71 56t31.5 83q0 49 -20 70.5t-50 27.5t-61 6q-43 0 -92.5 -16.5t-79.5 -31.5v105q18 12 67 30t133 18q57 0 108 -17.5t83.5 -59.5t32.5 -117q0 -58 -24.5 -102t-62 -75.5
t-77 -51.5t-71.5 -32z" />
    <glyph glyph-name="uni0233" unicode="&#x233;" horiz-adv-x="924" 
d="M446 159l277 662h174l-554 -1237h-176l186 416l-338 821h177zM169 1049v122h587v-122h-587z" />
    <glyph glyph-name="uni1EF9" unicode="&#x1ef9;" horiz-adv-x="924" 
d="M446 159l277 662h174l-554 -1237h-176l186 416l-338 821h177zM129 1004q10 46 34.5 94t64 81.5t92.5 33.5q61 0 103 -19t79 -38t82 -19q35 0 56 26t27 50h126q-10 -44 -35.5 -92.5t-65 -82.5t-92.5 -34q-61 0 -104 19t-79 38t-76 19q-33 0 -55.5 -25.5t-30.5 -50.5h-126z
" />
    <glyph glyph-name="z" unicode="z" horiz-adv-x="842" 
d="M73 821h716l-491 -689h471v-132h-752l491 690h-435v131z" />
    <glyph glyph-name="zacute" unicode="&#x17a;" horiz-adv-x="842" 
d="M73 821h716l-491 -689h471v-132h-752l491 690h-435v131zM345 974l-61 82l303 251l100 -124z" />
    <glyph glyph-name="zcaron" unicode="&#x17e;" horiz-adv-x="842" 
d="M73 821h716l-491 -689h471v-132h-752l491 690h-435v131zM415 961l-299 219l76 102l223 -162l224 163l76 -102z" />
    <glyph glyph-name="zdotaccent" unicode="&#x17c;" horiz-adv-x="842" 
d="M73 821h716l-491 -689h471v-132h-752l491 690h-435v131zM404 1011q-44 0 -75 32t-31 75t31 75.5t75 32.5t75.5 -32t31.5 -76t-31.5 -75.5t-75.5 -31.5z" />
    <glyph glyph-name="germandbls.calt" horiz-adv-x="1237" 
d="M449 165q51 -18 110.5 -28.5t117.5 -10.5q136 0 206.5 73t70.5 187q0 133 -100 198.5t-314 33.5v159l290 405q-52 12 -111.5 18t-103.5 6q-123 0 -197 -41.5t-106.5 -126t-32.5 -213.5v-825h-169v901q0 160 62 259t176.5 145t273.5 46q54 0 116.5 -6t129.5 -17.5
t133 -27.5l-3 -143l-297 -413q77 5 152.5 -7.5t137.5 -52.5t99.5 -112.5t37.5 -186.5q0 -136 -59 -226.5t-157 -135.5t-216 -45q-138 0 -247 36v151z" />
    <glyph glyph-name="a.ss01" horiz-adv-x="997" 
d="M382 -24q-83 0 -159 29t-124.5 91t-48.5 159q0 78 31 130t82.5 83t114 44t125.5 13q120 0 205.5 -33t107.5 -71l-11 -24v70q0 81 -35 135t-96.5 81.5t-141.5 27.5q-76 0 -129.5 -18t-88 -44t-55.5 -50l-98 101q15 23 64 57t128.5 61t185.5 27q83 0 160.5 -21t139 -65
t97.5 -114t36 -168v-477h-167v137l17 -22q-16 -33 -63 -65t-117.5 -53t-159.5 -21zM429 103q61 0 117.5 19t99.5 49t59 62v55q-16 31 -57.5 59t-98 45.5t-116.5 17.5q-57 0 -105.5 -14.5t-78.5 -48.5t-30 -93q0 -58 31 -91t79.5 -46.5t99.5 -13.5z" />
    <glyph glyph-name="aacute.ss01" horiz-adv-x="1000" 
d="M382 -24q-83 0 -159 29t-124.5 91t-48.5 159q0 78 31 130t82.5 83t114 44t125.5 13q120 0 205.5 -33t107.5 -71l-11 -24v70q0 81 -35 135t-96.5 81.5t-141.5 27.5q-76 0 -129.5 -18t-88 -44t-55.5 -50l-98 101q15 23 64 57t128.5 61t185.5 27q83 0 160.5 -21t139 -65
t97.5 -114t36 -168v-477h-167v137l17 -22q-16 -33 -63 -65t-117.5 -53t-159.5 -21zM429 103q61 0 117.5 19t99.5 49t59 62v55q-16 31 -57.5 59t-98 45.5t-116.5 17.5q-57 0 -105.5 -14.5t-78.5 -48.5t-30 -93q0 -58 31 -91t79.5 -46.5t99.5 -13.5zM346 934l-61 83l303 251
l100 -124z" />
    <glyph glyph-name="abreve.ss01" horiz-adv-x="1000" 
d="M382 -24q-83 0 -159 29t-124.5 91t-48.5 159q0 78 31 130t82.5 83t114 44t125.5 13q120 0 205.5 -33t107.5 -71l-11 -24v70q0 81 -35 135t-96.5 81.5t-141.5 27.5q-76 0 -129.5 -18t-88 -44t-55.5 -50l-98 101q15 23 64 57t128.5 61t185.5 27q83 0 160.5 -21t139 -65
t97.5 -114t36 -168v-477h-167v137l17 -22q-16 -33 -63 -65t-117.5 -53t-159.5 -21zM429 103q61 0 117.5 19t99.5 49t59 62v55q-16 31 -57.5 59t-98 45.5t-116.5 17.5q-57 0 -105.5 -14.5t-78.5 -48.5t-30 -93q0 -58 31 -91t79.5 -46.5t99.5 -13.5zM470 954q-86 0 -149.5 33
t-101 85t-44.5 112l137 34q5 -31 23.5 -65t52 -57t82.5 -23q48 0 81.5 23t52 57t22.5 65l138 -34q-6 -57 -43 -110t-100.5 -86.5t-150.5 -33.5z" />
    <glyph glyph-name="uni1EAF.ss01" horiz-adv-x="1000" 
d="M382 -24q-83 0 -159 29t-124.5 91t-48.5 159q0 78 31 130t82.5 83t114 44t125.5 13q120 0 205.5 -33t107.5 -71l-11 -24v70q0 81 -35 135t-96.5 81.5t-141.5 27.5q-76 0 -129.5 -18t-88 -44t-55.5 -50l-98 101q15 23 64 57t128.5 61t185.5 27q83 0 160.5 -21t139 -65
t97.5 -114t36 -168v-477h-167v137l17 -22q-16 -33 -63 -65t-117.5 -53t-159.5 -21zM429 103q61 0 117.5 19t99.5 49t59 62v55q-16 31 -57.5 59t-98 45.5t-116.5 17.5q-57 0 -105.5 -14.5t-78.5 -48.5t-30 -93q0 -58 31 -91t79.5 -46.5t99.5 -13.5zM470 954q-85 0 -149 33
t-101.5 85t-43.5 112l137 34q5 -31 23.5 -65t52 -57t81.5 -23q49 0 82 23t52 57t23 65l138 -34q-7 -57 -43.5 -110t-100 -86.5t-151.5 -33.5zM390 1256l-62 83l305 251l98 -124z" />
    <glyph glyph-name="uni1EB7.ss01" horiz-adv-x="1000" 
d="M382 -24q-83 0 -159 29t-124.5 91t-48.5 159q0 78 31 130t82.5 83t114 44t125.5 13q120 0 205.5 -33t107.5 -71l-11 -24v70q0 81 -35 135t-96.5 81.5t-141.5 27.5q-76 0 -129.5 -18t-88 -44t-55.5 -50l-98 101q15 23 64 57t128.5 61t185.5 27q83 0 160.5 -21t139 -65
t97.5 -114t36 -168v-477h-167v137l17 -22q-16 -33 -63 -65t-117.5 -53t-159.5 -21zM429 103q61 0 117.5 19t99.5 49t59 62v55q-16 31 -57.5 59t-98 45.5t-116.5 17.5q-57 0 -105.5 -14.5t-78.5 -48.5t-30 -93q0 -58 31 -91t79.5 -46.5t99.5 -13.5zM453 -304q-38 0 -65 27.5
t-27 64.5t27 65t65 28t65.5 -27.5t27.5 -65.5t-27.5 -65t-65.5 -27zM470 954q-86 0 -149.5 33t-101 85t-44.5 112l137 34q5 -31 23.5 -65t52 -57t82.5 -23q48 0 81.5 23t52 57t22.5 65l138 -34q-6 -57 -43 -110t-100.5 -86.5t-150.5 -33.5z" />
    <glyph glyph-name="uni1EB1.ss01" horiz-adv-x="1000" 
d="M382 -24q-83 0 -159 29t-124.5 91t-48.5 159q0 78 31 130t82.5 83t114 44t125.5 13q120 0 205.5 -33t107.5 -71l-11 -24v70q0 81 -35 135t-96.5 81.5t-141.5 27.5q-76 0 -129.5 -18t-88 -44t-55.5 -50l-98 101q15 23 64 57t128.5 61t185.5 27q83 0 160.5 -21t139 -65
t97.5 -114t36 -168v-477h-167v137l17 -22q-16 -33 -63 -65t-117.5 -53t-159.5 -21zM429 103q61 0 117.5 19t99.5 49t59 62v55q-16 31 -57.5 59t-98 45.5t-116.5 17.5q-57 0 -105.5 -14.5t-78.5 -48.5t-30 -93q0 -58 31 -91t79.5 -46.5t99.5 -13.5zM552 1269l-341 210l98 124
l305 -251zM470 954q-86 0 -150 33.5t-101 85.5t-43 111l136 34q5 -31 23.5 -65t52 -57t82.5 -23t82 23t51.5 57t22.5 65l139 -34q-7 -58 -44 -111t-101 -86t-150 -33z" />
    <glyph glyph-name="uni1EB3.ss01" horiz-adv-x="1000" 
d="M382 -24q-83 0 -159 29t-124.5 91t-48.5 159q0 78 31 130t82.5 83t114 44t125.5 13q120 0 205.5 -33t107.5 -71l-11 -24v70q0 81 -35 135t-96.5 81.5t-141.5 27.5q-76 0 -129.5 -18t-88 -44t-55.5 -50l-98 101q15 23 64 57t128.5 61t185.5 27q83 0 160.5 -21t139 -65
t97.5 -114t36 -168v-477h-167v137l17 -22q-16 -33 -63 -65t-117.5 -53t-159.5 -21zM429 103q61 0 117.5 19t99.5 49t59 62v55q-16 31 -57.5 59t-98 45.5t-116.5 17.5q-57 0 -105.5 -14.5t-78.5 -48.5t-30 -93q0 -58 31 -91t79.5 -46.5t99.5 -13.5zM447 1221l-54 80
q26 7 65.5 27.5t71 55.5t31.5 84t-20 70.5t-50 27t-61 5.5q-43 0 -92.5 -16t-79.5 -31v105q18 12 67 30t133 18q57 0 108 -17.5t83.5 -60t32.5 -116.5q0 -59 -24.5 -102.5t-62 -75t-77 -51.5t-71.5 -33zM470 954q-85 0 -149 33t-101.5 85t-43.5 112l137 34q5 -31 23.5 -65
t52 -57t81.5 -23q49 0 82 23t52 57t23 65l138 -34q-7 -57 -43.5 -110t-100 -86.5t-151.5 -33.5z" />
    <glyph glyph-name="uni1EB5.ss01" horiz-adv-x="1000" 
d="M382 -24q-83 0 -159 29t-124.5 91t-48.5 159q0 78 31 130t82.5 83t114 44t125.5 13q120 0 205.5 -33t107.5 -71l-11 -24v70q0 81 -35 135t-96.5 81.5t-141.5 27.5q-76 0 -129.5 -18t-88 -44t-55.5 -50l-98 101q15 23 64 57t128.5 61t185.5 27q83 0 160.5 -21t139 -65
t97.5 -114t36 -168v-477h-167v137l17 -22q-16 -33 -63 -65t-117.5 -53t-159.5 -21zM429 103q61 0 117.5 19t99.5 49t59 62v55q-16 31 -57.5 59t-98 45.5t-116.5 17.5q-57 0 -105.5 -14.5t-78.5 -48.5t-30 -93q0 -58 31 -91t79.5 -46.5t99.5 -13.5zM154 1331q10 46 34.5 94
t64 81.5t92.5 33.5q61 0 103 -19t79 -38t82 -19q35 0 53.5 22.5t29.5 53.5h126q-9 -40 -34.5 -89t-65.5 -84.5t-93 -35.5q-61 0 -104 19t-79 38t-76 19q-33 0 -55.5 -25.5t-30.5 -50.5h-126zM470 954q-85 0 -149 33t-101.5 85t-43.5 112l137 34q5 -31 23.5 -65t52 -57
t81.5 -23q49 0 82 23t52 57t23 65l138 -34q-7 -57 -43.5 -110t-100 -86.5t-151.5 -33.5z" />
    <glyph glyph-name="uni01CE.ss01" horiz-adv-x="1000" 
d="M382 -24q-83 0 -159 29t-124.5 91t-48.5 159q0 78 31 130t82.5 83t114 44t125.5 13q120 0 205.5 -33t107.5 -71l-11 -24v70q0 81 -35 135t-96.5 81.5t-141.5 27.5q-76 0 -129.5 -18t-88 -44t-55.5 -50l-98 101q15 23 64 57t128.5 61t185.5 27q83 0 160.5 -21t139 -65
t97.5 -114t36 -168v-477h-167v137l17 -22q-16 -33 -63 -65t-117.5 -53t-159.5 -21zM429 103q61 0 117.5 19t99.5 49t59 62v55q-16 31 -57.5 59t-98 45.5t-116.5 17.5q-57 0 -105.5 -14.5t-78.5 -48.5t-30 -93q0 -58 31 -91t79.5 -46.5t99.5 -13.5zM486 961l-299 219l76 102
l223 -162l224 163l76 -102z" />
    <glyph glyph-name="acircumflex.ss01" horiz-adv-x="1000" 
d="M382 -24q-83 0 -159 29t-124.5 91t-48.5 159q0 78 31 130t82.5 83t114 44t125.5 13q120 0 205.5 -33t107.5 -71l-11 -24v70q0 81 -35 135t-96.5 81.5t-141.5 27.5q-76 0 -129.5 -18t-88 -44t-55.5 -50l-98 101q15 23 64 57t128.5 61t185.5 27q83 0 160.5 -21t139 -65
t97.5 -114t36 -168v-477h-167v137l17 -22q-16 -33 -63 -65t-117.5 -53t-159.5 -21zM429 103q61 0 117.5 19t99.5 49t59 62v55q-16 31 -57.5 59t-98 45.5t-116.5 17.5q-57 0 -105.5 -14.5t-78.5 -48.5t-30 -93q0 -58 31 -91t79.5 -46.5t99.5 -13.5zM694 915l-224 164
l-223 -163l-76 101l299 219l300 -219z" />
    <glyph glyph-name="uni1EA5.ss01" horiz-adv-x="1000" 
d="M382 -24q-83 0 -159 29t-124.5 91t-48.5 159q0 78 31 130t82.5 83t114 44t125.5 13q120 0 205.5 -33t107.5 -71l-11 -24v70q0 81 -35 135t-96.5 81.5t-141.5 27.5q-76 0 -129.5 -18t-88 -44t-55.5 -50l-98 101q15 23 64 57t128.5 61t185.5 27q83 0 160.5 -21t139 -65
t97.5 -114t36 -168v-477h-167v137l17 -22q-16 -33 -63 -65t-117.5 -53t-159.5 -21zM429 103q61 0 117.5 19t99.5 49t59 62v55q-16 31 -57.5 59t-98 45.5t-116.5 17.5q-57 0 -105.5 -14.5t-78.5 -48.5t-30 -93q0 -58 31 -91t79.5 -46.5t99.5 -13.5zM694 909l-224 164
l-223 -163l-76 102l299 219l300 -220zM686 1173l-61 83l304 251l99 -124z" />
    <glyph glyph-name="uni1EAD.ss01" horiz-adv-x="1000" 
d="M382 -24q-83 0 -159 29t-124.5 91t-48.5 159q0 78 31 130t82.5 83t114 44t125.5 13q120 0 205.5 -33t107.5 -71l-11 -24v70q0 81 -35 135t-96.5 81.5t-141.5 27.5q-76 0 -129.5 -18t-88 -44t-55.5 -50l-98 101q15 23 64 57t128.5 61t185.5 27q83 0 160.5 -21t139 -65
t97.5 -114t36 -168v-477h-167v137l17 -22q-16 -33 -63 -65t-117.5 -53t-159.5 -21zM429 103q61 0 117.5 19t99.5 49t59 62v55q-16 31 -57.5 59t-98 45.5t-116.5 17.5q-57 0 -105.5 -14.5t-78.5 -48.5t-30 -93q0 -58 31 -91t79.5 -46.5t99.5 -13.5zM453 -304q-38 0 -65 27.5
t-27 64.5t27 65t65 28t65.5 -27.5t27.5 -65.5t-27.5 -65t-65.5 -27zM694 915l-224 164l-223 -163l-76 101l299 219l300 -219z" />
    <glyph glyph-name="uni1EA7.ss01" horiz-adv-x="1000" 
d="M382 -24q-83 0 -159 29t-124.5 91t-48.5 159q0 78 31 130t82.5 83t114 44t125.5 13q120 0 205.5 -33t107.5 -71l-11 -24v70q0 81 -35 135t-96.5 81.5t-141.5 27.5q-76 0 -129.5 -18t-88 -44t-55.5 -50l-98 101q15 23 64 57t128.5 61t185.5 27q83 0 160.5 -21t139 -65
t97.5 -114t36 -168v-477h-167v137l17 -22q-16 -33 -63 -65t-117.5 -53t-159.5 -21zM429 103q61 0 117.5 19t99.5 49t59 62v55q-16 31 -57.5 59t-98 45.5t-116.5 17.5q-57 0 -105.5 -14.5t-78.5 -48.5t-30 -93q0 -58 31 -91t79.5 -46.5t99.5 -13.5zM698 911l-224 164
l-223 -163l-76 101l299 219l300 -219zM847 1147l-341 210l98 124l305 -251z" />
    <glyph glyph-name="uni1EA9.ss01" horiz-adv-x="1000" 
d="M382 -24q-83 0 -159 29t-124.5 91t-48.5 159q0 78 31 130t82.5 83t114 44t125.5 13q120 0 205.5 -33t107.5 -71l-11 -24v70q0 81 -35 135t-96.5 81.5t-141.5 27.5q-76 0 -129.5 -18t-88 -44t-55.5 -50l-98 101q15 23 64 57t128.5 61t185.5 27q83 0 160.5 -21t139 -65
t97.5 -114t36 -168v-477h-167v137l17 -22q-16 -33 -63 -65t-117.5 -53t-159.5 -21zM429 103q61 0 117.5 19t99.5 49t59 62v55q-16 31 -57.5 59t-98 45.5t-116.5 17.5q-57 0 -105.5 -14.5t-78.5 -48.5t-30 -93q0 -58 31 -91t79.5 -46.5t99.5 -13.5zM660 1165l-54 80
q26 6 65.5 27t71 56t31.5 83q0 49 -20 70.5t-50 27.5t-61 6q-43 0 -92.5 -16.5t-79.5 -31.5v105q18 12 67 30t133 18q57 0 108 -17.5t83.5 -59.5t32.5 -117q0 -58 -24.5 -102t-62 -75.5t-77 -51.5t-71.5 -32zM696 909l-224 164l-223 -163l-76 102l299 219l300 -220z" />
    <glyph glyph-name="uni1EAB.ss01" horiz-adv-x="1000" 
d="M382 -24q-83 0 -159 29t-124.5 91t-48.5 159q0 78 31 130t82.5 83t114 44t125.5 13q120 0 205.5 -33t107.5 -71l-11 -24v70q0 81 -35 135t-96.5 81.5t-141.5 27.5q-76 0 -129.5 -18t-88 -44t-55.5 -50l-98 101q15 23 64 57t128.5 61t185.5 27q83 0 160.5 -21t139 -65
t97.5 -114t36 -168v-477h-167v137l17 -22q-16 -33 -63 -65t-117.5 -53t-159.5 -21zM429 103q61 0 117.5 19t99.5 49t59 62v55q-16 31 -57.5 59t-98 45.5t-116.5 17.5q-57 0 -105.5 -14.5t-78.5 -48.5t-30 -93q0 -58 31 -91t79.5 -46.5t99.5 -13.5zM144 1271q10 45 34.5 93
t64 82t92.5 34q61 0 103 -19t79 -38t82 -19q35 0 56 26t27 50h126q-10 -45 -35.5 -93.5t-65 -82t-92.5 -33.5q-61 0 -104 19t-79 37.5t-76 18.5q-33 0 -55.5 -25.5t-30.5 -49.5h-126zM691 909l-224 164l-223 -163l-76 102l299 219l300 -220z" />
    <glyph glyph-name="uni0201.ss01" horiz-adv-x="1000" 
d="M382 -24q-83 0 -159 29t-124.5 91t-48.5 159q0 78 31 130t82.5 83t114 44t125.5 13q120 0 205.5 -33t107.5 -71l-11 -24v70q0 81 -35 135t-96.5 81.5t-141.5 27.5q-76 0 -129.5 -18t-88 -44t-55.5 -50l-98 101q15 23 64 57t128.5 61t185.5 27q83 0 160.5 -21t139 -65
t97.5 -114t36 -168v-477h-167v137l17 -22q-16 -33 -63 -65t-117.5 -53t-159.5 -21zM429 103q61 0 117.5 19t99.5 49t59 62v55q-16 31 -57.5 59t-98 45.5t-116.5 17.5q-57 0 -105.5 -14.5t-78.5 -48.5t-30 -93q0 -58 31 -91t79.5 -46.5t99.5 -13.5zM717 974l-341 209l98 124
l305 -251zM344 974l-341 209l98 124l306 -251z" />
    <glyph glyph-name="adieresis.ss01" horiz-adv-x="1000" 
d="M382 -24q-83 0 -159 29t-124.5 91t-48.5 159q0 78 31 130t82.5 83t114 44t125.5 13q120 0 205.5 -33t107.5 -71l-11 -24v70q0 81 -35 135t-96.5 81.5t-141.5 27.5q-76 0 -129.5 -18t-88 -44t-55.5 -50l-98 101q15 23 64 57t128.5 61t185.5 27q83 0 160.5 -21t139 -65
t97.5 -114t36 -168v-477h-167v137l17 -22q-16 -33 -63 -65t-117.5 -53t-159.5 -21zM429 103q61 0 117.5 19t99.5 49t59 62v55q-16 31 -57.5 59t-98 45.5t-116.5 17.5q-57 0 -105.5 -14.5t-78.5 -48.5t-30 -93q0 -58 31 -91t79.5 -46.5t99.5 -13.5zM680 992q-45 0 -76 32
t-31 75t31 75.5t76 32.5q43 0 75 -32t32 -76t-32 -75.5t-75 -31.5zM290 992q-44 0 -75.5 32t-31.5 75t31.5 75.5t75.5 32.5q43 0 75 -32t32 -76t-32 -75.5t-75 -31.5z" />
    <glyph glyph-name="uni1EA1.ss01" horiz-adv-x="1000" 
d="M382 -24q-83 0 -159 29t-124.5 91t-48.5 159q0 78 31 130t82.5 83t114 44t125.5 13q120 0 205.5 -33t107.5 -71l-11 -24v70q0 81 -35 135t-96.5 81.5t-141.5 27.5q-76 0 -129.5 -18t-88 -44t-55.5 -50l-98 101q15 23 64 57t128.5 61t185.5 27q83 0 160.5 -21t139 -65
t97.5 -114t36 -168v-477h-167v137l17 -22q-16 -33 -63 -65t-117.5 -53t-159.5 -21zM429 103q61 0 117.5 19t99.5 49t59 62v55q-16 31 -57.5 59t-98 45.5t-116.5 17.5q-57 0 -105.5 -14.5t-78.5 -48.5t-30 -93q0 -58 31 -91t79.5 -46.5t99.5 -13.5zM453 -304q-38 0 -65 27.5
t-27 64.5t27 65t65 28t65.5 -27.5t27.5 -65.5t-27.5 -65t-65.5 -27z" />
    <glyph glyph-name="agrave.ss01" horiz-adv-x="1000" 
d="M382 -24q-83 0 -159 29t-124.5 91t-48.5 159q0 78 31 130t82.5 83t114 44t125.5 13q120 0 205.5 -33t107.5 -71l-11 -24v70q0 81 -35 135t-96.5 81.5t-141.5 27.5q-76 0 -129.5 -18t-88 -44t-55.5 -50l-98 101q15 23 64 57t128.5 61t185.5 27q83 0 160.5 -21t139 -65
t97.5 -114t36 -168v-477h-167v137l17 -22q-16 -33 -63 -65t-117.5 -53t-159.5 -21zM429 103q61 0 117.5 19t99.5 49t59 62v55q-16 31 -57.5 59t-98 45.5t-116.5 17.5q-57 0 -105.5 -14.5t-78.5 -48.5t-30 -93q0 -58 31 -91t79.5 -46.5t99.5 -13.5zM626 974l-341 209l98 124
l306 -251z" />
    <glyph glyph-name="uni1EA3.ss01" horiz-adv-x="1000" 
d="M382 -24q-83 0 -159 29t-124.5 91t-48.5 159q0 78 31 130t82.5 83t114 44t125.5 13q120 0 205.5 -33t107.5 -71l-11 -24v70q0 81 -35 135t-96.5 81.5t-141.5 27.5q-76 0 -129.5 -18t-88 -44t-55.5 -50l-98 101q15 23 64 57t128.5 61t185.5 27q83 0 160.5 -21t139 -65
t97.5 -114t36 -168v-477h-167v137l17 -22q-16 -33 -63 -65t-117.5 -53t-159.5 -21zM429 103q61 0 117.5 19t99.5 49t59 62v55q-16 31 -57.5 59t-98 45.5t-116.5 17.5q-57 0 -105.5 -14.5t-78.5 -48.5t-30 -93q0 -58 31 -91t79.5 -46.5t99.5 -13.5zM447 872l-54 80
q26 6 65.5 27t71 56t31.5 83q0 49 -20 70.5t-50 27.5t-61 6q-43 0 -92.5 -16.5t-79.5 -31.5v105q18 12 67 30t133 18q57 0 108 -17.5t83.5 -59.5t32.5 -117q0 -58 -24.5 -102t-62 -75.5t-77 -51.5t-71.5 -32z" />
    <glyph glyph-name="uni0203.ss01" horiz-adv-x="1000" 
d="M382 -24q-83 0 -159 29t-124.5 91t-48.5 159q0 78 31 130t82.5 83t114 44t125.5 13q120 0 205.5 -33t107.5 -71l-11 -24v70q0 81 -35 135t-96.5 81.5t-141.5 27.5q-76 0 -129.5 -18t-88 -44t-55.5 -50l-98 101q15 23 64 57t128.5 61t185.5 27q83 0 160.5 -21t139 -65
t97.5 -114t36 -168v-477h-167v137l17 -22q-16 -33 -63 -65t-117.5 -53t-159.5 -21zM429 103q61 0 117.5 19t99.5 49t59 62v55q-16 31 -57.5 59t-98 45.5t-116.5 17.5q-57 0 -105.5 -14.5t-78.5 -48.5t-30 -93q0 -58 31 -91t79.5 -46.5t99.5 -13.5zM312 951l-138 34
q7 57 43.5 110t100.5 86.5t151 33.5q86 0 149.5 -33t101 -85t43.5 -112l-137 -34q-4 32 -23 65.5t-52 56.5t-82 23t-82 -23t-51.5 -56.5t-23.5 -65.5z" />
    <glyph glyph-name="amacron.ss01" horiz-adv-x="1000" 
d="M382 -24q-83 0 -159 29t-124.5 91t-48.5 159q0 78 31 130t82.5 83t114 44t125.5 13q120 0 205.5 -33t107.5 -71l-11 -24v70q0 81 -35 135t-96.5 81.5t-141.5 27.5q-76 0 -129.5 -18t-88 -44t-55.5 -50l-98 101q15 23 64 57t128.5 61t185.5 27q83 0 160.5 -21t139 -65
t97.5 -114t36 -168v-477h-167v137l17 -22q-16 -33 -63 -65t-117.5 -53t-159.5 -21zM429 103q61 0 117.5 19t99.5 49t59 62v55q-16 31 -57.5 59t-98 45.5t-116.5 17.5q-57 0 -105.5 -14.5t-78.5 -48.5t-30 -93q0 -58 31 -91t79.5 -46.5t99.5 -13.5zM194 1049v122h587v-122
h-587z" />
    <glyph glyph-name="aogonek.ss01" horiz-adv-x="1000" 
d="M382 -24q-83 0 -159 29t-124.5 91t-48.5 159q0 78 31 130t82.5 83t114 44t125.5 13q120 0 205.5 -33t107.5 -71l-11 -24v70q0 81 -35 135t-96.5 81.5t-141.5 27.5q-76 0 -129.5 -18t-88 -44t-55.5 -50l-98 101q15 23 64 57t128.5 61t185.5 27q83 0 160.5 -21t139 -65
t97.5 -114t36 -168v-477h-167v137l17 -22q-16 -33 -63 -65t-117.5 -53t-159.5 -21zM429 103q61 0 117.5 19t99.5 49t59 62v55q-16 31 -57.5 59t-98 45.5t-116.5 17.5q-57 0 -105.5 -14.5t-78.5 -48.5t-30 -93q0 -58 31 -91t79.5 -46.5t99.5 -13.5zM831 -427q-42 0 -87.5 15
t-77 53.5t-31.5 107.5q0 50 28.5 104.5t70 104t79.5 83.5l64 -41q-27 -27 -57 -66.5t-51 -84t-21 -85.5q0 -50 32 -70t72 -20t71 20.5t46 42.5l81 -62q-23 -38 -85 -70t-134 -32z" />
    <glyph glyph-name="aring.ss01" horiz-adv-x="1000" 
d="M382 -24q-83 0 -159 29t-124.5 91t-48.5 159q0 78 31 130t82.5 83t114 44t125.5 13q120 0 205.5 -33t107.5 -71l-11 -24v70q0 81 -35 135t-96.5 81.5t-141.5 27.5q-76 0 -129.5 -18t-88 -44t-55.5 -50l-98 101q15 23 64 57t128.5 61t185.5 27q83 0 160.5 -21t139 -65
t97.5 -114t36 -168v-477h-167v137l17 -22q-16 -33 -63 -65t-117.5 -53t-159.5 -21zM429 103q61 0 117.5 19t99.5 49t59 62v55q-16 31 -57.5 59t-98 45.5t-116.5 17.5q-57 0 -105.5 -14.5t-78.5 -48.5t-30 -93q0 -58 31 -91t79.5 -46.5t99.5 -13.5zM470 925q-92 0 -148.5 51
t-56.5 132q0 53 27.5 94t74 65t103.5 24q58 0 104 -24t73.5 -65t27.5 -94q0 -81 -57.5 -132t-147.5 -51zM470 1019q36 0 61 23.5t25 65.5q0 41 -25 64t-61 23q-34 0 -60 -23t-26 -64q0 -42 25.5 -65.5t60.5 -23.5z" />
    <glyph glyph-name="aringacute.ss01" horiz-adv-x="1000" 
d="M382 -24q-83 0 -159 29t-124.5 91t-48.5 159q0 78 31 130t82.5 83t114 44t125.5 13q120 0 205.5 -33t107.5 -71l-11 -24v70q0 81 -35 135t-96.5 81.5t-141.5 27.5q-76 0 -129.5 -18t-88 -44t-55.5 -50l-98 101q15 23 64 57t128.5 61t185.5 27q83 0 160.5 -21t139 -65
t97.5 -114t36 -168v-477h-167v137l17 -22q-16 -33 -63 -65t-117.5 -53t-159.5 -21zM429 103q61 0 117.5 19t99.5 49t59 62v55q-16 31 -57.5 59t-98 45.5t-116.5 17.5q-57 0 -105.5 -14.5t-78.5 -48.5t-30 -93q0 -58 31 -91t79.5 -46.5t99.5 -13.5zM470 925q-92 0 -148.5 51
t-56.5 132q0 53 27.5 94t74 65t103.5 24q58 0 104 -24t73.5 -65t27.5 -94q0 -81 -57.5 -132t-147.5 -51zM470 1019q36 0 61 23.5t25 65.5q0 41 -25 64t-61 23q-34 0 -60 -23t-26 -64q0 -42 25.5 -65.5t60.5 -23.5zM346 1303l-61 83l303 251l100 -124z" />
    <glyph glyph-name="atilde.ss01" horiz-adv-x="1000" 
d="M382 -24q-83 0 -159 29t-124.5 91t-48.5 159q0 78 31 130t82.5 83t114 44t125.5 13q120 0 205.5 -33t107.5 -71l-11 -24v70q0 81 -35 135t-96.5 81.5t-141.5 27.5q-76 0 -129.5 -18t-88 -44t-55.5 -50l-98 101q15 23 64 57t128.5 61t185.5 27q83 0 160.5 -21t139 -65
t97.5 -114t36 -168v-477h-167v137l17 -22q-16 -33 -63 -65t-117.5 -53t-159.5 -21zM429 103q61 0 117.5 19t99.5 49t59 62v55q-16 31 -57.5 59t-98 45.5t-116.5 17.5q-57 0 -105.5 -14.5t-78.5 -48.5t-30 -93q0 -58 31 -91t79.5 -46.5t99.5 -13.5zM154 1004q10 46 34.5 94
t64 81.5t92.5 33.5q61 0 103 -19t79 -38t82 -19q35 0 56 26t27 50h126q-10 -44 -35.5 -92.5t-65 -82.5t-92.5 -34q-61 0 -104 19t-79 38t-76 19q-33 0 -55.5 -25.5t-30.5 -50.5h-126z" />
    <glyph glyph-name="ordfeminine" unicode="&#xaa;" horiz-adv-x="832" 
d="M127 1075q0 81 34 141.5t92 94t129 33.5q68 0 112.5 -26.5t59.5 -52.5v64l118 -1v-507h-116v69h-2q-8 -15 -31 -35t-58.5 -35t-82.5 -15q-71 0 -129 33.5t-92 94t-34 142.5zM247 1075q0 -76 45.5 -120t105.5 -44q67 0 113 46.5t46 117.5t-47 117t-112 46q-59 0 -105 -44
t-46 -119z" />
    <glyph glyph-name="ordmasculine" unicode="&#xba;" horiz-adv-x="853" 
d="M126 1074q0 79 40 140t105.5 95.5t139.5 34.5q73 0 137.5 -34.5t104 -95.5t39.5 -140q0 -78 -38.5 -138.5t-102 -95t-140.5 -34.5q-81 0 -145.5 34.5t-102 95t-37.5 138.5zM250 1074q0 -72 46 -120t114 -48q64 0 112 48t48 120q0 50 -22.5 88t-59.5 59.5t-78 21.5
t-77.5 -21.5t-59.5 -59.5t-23 -88z" />
    <glyph glyph-name="zero" unicode="0" horiz-adv-x="1162" 
d="M66 659q0 176 42.5 305t114 213.5t160 125.5t182.5 41t183 -41t159.5 -125.5t112 -213.5t41.5 -305q0 -179 -41.5 -308.5t-112 -212t-159.5 -122.5t-183 -40t-182.5 40t-160 122.5t-114 212t-42.5 308.5zM241 659q0 -177 44 -294.5t117.5 -175.5t162.5 -58t162 58
t117 175.5t44 294.5q0 175 -44 292.5t-117 177.5t-162 60t-162.5 -60t-117.5 -177.5t-44 -292.5z" />
    <glyph glyph-name="one" unicode="1" horiz-adv-x="611" 
d="M276 1107l-229 -130v168l303 175h98v-1320h-172v1107z" />
    <glyph glyph-name="two" unicode="2" horiz-adv-x="1089" 
d="M537 1193q-83 0 -144.5 -33.5t-103 -78t-63 -81t-23.5 -40.5l-151 66q2 9 19 43.5t53 80.5t92 90.5t135.5 74t185.5 29.5q108 0 187 -30t130 -84t76 -128t25 -161q0 -84 -40 -172t-104 -172.5t-137.5 -159t-142 -134.5t-118 -98.5t-64.5 -50.5h595v-154h-862v141
q31 24 93.5 73.5t141.5 116.5t160 145t150 159.5t111.5 160t42.5 147.5q0 138 -63.5 194t-180.5 56z" />
    <glyph glyph-name="three" unicode="3" horiz-adv-x="1035" 
d="M93 1110q6 23 32 62t74.5 78.5t121 66.5t172.5 27q126 0 215.5 -46.5t137 -126.5t47.5 -180q0 -77 -30 -139t-77.5 -101.5t-100.5 -48.5q56 -5 114 -44t97 -107t39 -163q0 -117 -56.5 -210.5t-157 -147.5t-232.5 -54q-130 0 -221.5 44.5t-146.5 108.5t-75 124l157 81
q15 -44 51.5 -91.5t95 -80.5t137.5 -33q88 0 149.5 35.5t93.5 95t32 132.5q0 81 -38.5 133t-101.5 76.5t-135 24.5h-26v132h34q64 0 118.5 26t88 76t33.5 119q0 92 -61 156t-184 64q-68 0 -115.5 -20t-76.5 -48.5t-43.5 -53.5t-16.5 -36z" />
    <glyph glyph-name="four" unicode="4" horiz-adv-x="986" 
d="M759 1320v-888h151v-154h-151v-278h-172v278h-555v142l541 900h186zM587 432v629h-1l-373 -629h374z" />
    <glyph glyph-name="five" unicode="5" horiz-adv-x="1057" 
d="M229 292q6 -18 23.5 -46t48.5 -55.5t78 -46.5t113 -19q133 0 208 85.5t74 225.5q-1 130 -69 201t-181 71q-70 0 -122.5 -25.5t-85 -61.5t-45.5 -68l-151 51l113 716h658v-154h-510l-62 -411q5 9 34.5 32.5t83.5 44t131 20.5q100 0 186 -44.5t139 -135t54 -228.5
q0 -138 -53.5 -243.5t-154.5 -165t-241 -59.5q-103 0 -177.5 26.5t-124.5 66.5t-78 80.5t-39 68.5z" />
    <glyph glyph-name="six" unicode="6" horiz-adv-x="1101" 
d="M573 860q112 0 207.5 -55.5t154.5 -154t59 -228.5q0 -129 -62.5 -229.5t-168 -158.5t-232.5 -58q-130 0 -234.5 57.5t-165.5 161.5t-61 243q0 146 50 247.5t118 185.5l359 449h205l-435 -527q22 24 75.5 45.5t130.5 21.5zM534 121q82 0 149.5 40.5t107.5 108.5t40 150
t-40 149.5t-107.5 107.5t-149.5 40q-83 0 -150.5 -40t-108 -107.5t-40.5 -149.5t40.5 -150t108 -108.5t150.5 -40.5z" />
    <glyph glyph-name="seven" unicode="7" horiz-adv-x="1040" 
d="M116 1320h853v-123l-680 -1197h-192l670 1166h-651v154z" />
    <glyph glyph-name="eight" unicode="8" horiz-adv-x="1096" 
d="M532 -24q-124 0 -223 51t-156 138.5t-57 196.5q0 98 33.5 166.5t90.5 113.5t124 70q-49 23 -92.5 60.5t-71.5 95t-28 139.5q0 100 51 176t136.5 118.5t191.5 42.5t191 -42.5t134.5 -118.5t49.5 -176q0 -123 -56.5 -191t-132.5 -104q67 -25 123.5 -70t91 -113.5
t34.5 -166.5q0 -109 -56.5 -196.5t-155 -138.5t-222.5 -51zM531 130q71 0 128.5 33t92 90t34.5 127q0 71 -34.5 127.5t-92 90t-128.5 33.5t-129.5 -33.5t-92.5 -90t-34 -127.5q0 -70 34 -127t92.5 -90t129.5 -33zM531 771q60 0 108.5 29t78 78.5t29.5 109.5q0 59 -29.5 108
t-78 78t-108.5 29q-59 0 -108.5 -29t-79 -78t-29.5 -108q0 -60 29.5 -109.5t79 -78.5t108.5 -29z" />
    <glyph glyph-name="nine" unicode="9" horiz-adv-x="1099" 
d="M270 0l434 527q-22 -24 -75 -45.5t-130 -21.5q-111 0 -207.5 55.5t-155.5 154t-59 228.5q0 129 63.5 229.5t168.5 158.5t232 58q130 0 234 -57.5t165.5 -161.5t61.5 -243q0 -145 -50 -247t-118 -186l-360 -449h-204zM538 603q83 0 150.5 40t108 107.5t40.5 149.5
q0 83 -40.5 150.5t-108 108t-150.5 40.5q-82 0 -149.5 -40.5t-107.5 -108t-40 -150.5q0 -82 40 -149.5t107.5 -107.5t149.5 -40z" />
    <glyph glyph-name="uni00B9" unicode="&#xb9;" horiz-adv-x="249" 
d="M123 1240l-87 -49v63l114 67h37v-500h-64v419z" />
    <glyph glyph-name="uni00B2" unicode="&#xb2;" horiz-adv-x="472" 
d="M253 1285q-32 0 -56.5 -13t-40 -30.5t-24 -31.5t-9.5 -15l-59 26q1 3 7.5 16t20.5 31.5t36 35.5t53 28.5t72 11.5q42 0 73 -11.5t50.5 -32.5t29.5 -49.5t10 -62.5t-15.5 -68t-40.5 -67t-54 -62t-55.5 -52t-45.5 -38.5t-25 -19.5h231v-60h-335v55q12 9 36.5 28.5
t55.5 45.5t62 56.5t58 62t43.5 62t16.5 57.5q0 54 -24.5 75.5t-70.5 21.5z" />
    <glyph glyph-name="uni00B3" unicode="&#xb3;" horiz-adv-x="432" 
d="M52 1254q3 9 13.5 24.5t29.5 31.5t48 27t68 11q50 0 86 -19t55 -50.5t19 -71.5q0 -31 -12 -55.5t-31 -40t-40 -19.5q22 -2 45 -17t39 -42.5t16 -64.5q0 -47 -23 -84t-63 -59t-92 -22t-88.5 18t-58 43.5t-29.5 49.5l63 32q5 -18 19.5 -36.5t38 -31.5t54.5 -13
q35 0 59.5 14t37 37.5t12.5 52.5q0 32 -15.5 52.5t-40 30.5t-53.5 10h-10v53h13q25 0 47 10.5t35 30t13 46.5q0 37 -24 62t-73 25q-27 0 -45.5 -8t-30 -19t-17.5 -21t-6 -14z" />
    <glyph glyph-name="uni2074" unicode="&#x2074;" horiz-adv-x="459" 
d="M322 1321v-354h61v-62h-61v-111h-68v111h-222v56l216 360h74zM254 967v251v0l-150 -251h150z" />
    <glyph glyph-name="fraction" unicode="&#x2044;" horiz-adv-x="419" 
d="M520 1320h108l-768 -1320h-108z" />
    <glyph glyph-name="onehalf" unicode="&#xbd;" horiz-adv-x="1489" 
d="M1140 694q-48 0 -84.5 -19.5t-60.5 -46t-36.5 -47.5t-13.5 -24l-88 40q1 4 11 24.5t31 47t53.5 53t79 43.5t108.5 17q64 0 110 -17.5t76 -49t44.5 -74.5t14.5 -95q0 -49 -23 -100.5t-60.5 -101t-81 -93.5t-83.5 -79t-69 -57.5t-38 -29.5h349v-90h-505v83q18 14 54.5 43
t83 68.5t94 84.5t88 93t65 94t24.5 87q0 80 -37 113t-106 33zM252 1199l-134 -76v98l178 103h56v-774h-100v649zM993 1320h108l-768 -1320h-108z" />
    <glyph glyph-name="onequarter" unicode="&#xbc;" horiz-adv-x="1355" 
d="M251 1199l-135 -76v98l178 103h57v-774h-100v649zM1164 770v-518h88v-90h-88v-162h-100v162h-324v83l315 525h109zM1064 252v367h-1l-217 -367h218zM990 1320h108l-768 -1320h-108z" />
    <glyph glyph-name="threequarters" unicode="&#xbe;" horiz-adv-x="1507" 
d="M104 1209q4 13 19 35.5t43.5 46t70.5 39t100 15.5q74 0 126 -27t79.5 -74t27.5 -104q0 -45 -17.5 -81.5t-45 -59.5t-58.5 -28q33 -3 66.5 -25.5t56.5 -62.5t23 -95q0 -68 -33 -122.5t-91.5 -86t-135.5 -31.5q-76 0 -129.5 26t-85.5 63t-43 72l92 48q7 -26 28.5 -54
t55.5 -47t81 -19q51 0 86.5 20.5t54.5 55.5t19 78q0 47 -22.5 77t-59 44.5t-78.5 14.5h-16v76h20q37 0 69.5 15.5t51.5 44.5t19 70q0 53 -35.5 90.5t-107.5 37.5q-39 0 -66.5 -11.5t-44.5 -28t-25.5 -31.5t-9.5 -21zM1294 770v-518h88v-90h-88v-162h-101v162h-323v83
l315 525h109zM1193 252v367v0l-217 -367h217zM1150 1320h108l-768 -1320h-108z" />
    <glyph glyph-name="CR" unicode="&#xd;" horiz-adv-x="1200" 
 />
    <glyph glyph-name="space" unicode=" " horiz-adv-x="499" 
 />
    <glyph glyph-name="uni00A0" unicode="&#xa0;" horiz-adv-x="499" 
 />
    <glyph glyph-name="period" unicode="." horiz-adv-x="619" 
d="M291 -24q-55 0 -94.5 39.5t-39.5 94.5q0 57 39.5 96.5t94.5 39.5q57 0 96 -39.5t39 -96.5q0 -55 -39 -94.5t-96 -39.5z" />
    <glyph glyph-name="comma" unicode="," horiz-adv-x="553" 
d="M259 251q61 0 104.5 -43t43.5 -116q0 -74 -30 -141t-79 -119t-106 -83l-65 67q30 14 65 40t63 59.5t38 71.5q-22 -11 -52 -11q-51 1 -88 39.5t-37 93.5q0 41 19 73t51.5 50.5t72.5 18.5z" />
    <glyph glyph-name="colon" unicode=":" horiz-adv-x="525" 
d="M260 -24q-55 0 -94.5 39.5t-39.5 94.5q0 57 39.5 96.5t94.5 39.5q57 0 96 -39.5t39 -96.5q0 -55 -39 -94.5t-96 -39.5zM260 611q-55 0 -94.5 39.5t-39.5 94.5q0 57 39.5 96.5t94.5 39.5q57 0 96 -39.5t39 -96.5q0 -55 -39 -94.5t-96 -39.5z" />
    <glyph glyph-name="semicolon" unicode=";" horiz-adv-x="539" 
d="M243 612q-55 0 -94.5 39.5t-39.5 94.5q0 57 39.5 96.5t94.5 39.5q57 0 96 -39.5t39 -96.5q0 -55 -39 -94.5t-96 -39.5zM246 251q61 0 104.5 -43t43.5 -116q0 -74 -30 -141t-79 -119t-106 -83l-65 67q30 14 65 40t63 59.5t38 71.5q-22 -11 -52 -11q-51 1 -88 39.5
t-37 93.5q0 41 19 73t51.5 50.5t72.5 18.5z" />
    <glyph glyph-name="ellipsis" unicode="&#x2026;" horiz-adv-x="1535" 
d="M261 -24q-55 0 -94.5 39.5t-39.5 94.5q0 57 39.5 96.5t94.5 39.5q57 0 96 -39.5t39 -96.5q0 -55 -39 -94.5t-96 -39.5zM767 -24q-55 0 -94.5 39.5t-39.5 94.5q0 57 39.5 96.5t94.5 39.5q57 0 96 -39.5t39 -96.5q0 -55 -39 -94.5t-96 -39.5zM1271 -24q-55 0 -94.5 39.5
t-39.5 94.5q0 57 39.5 96.5t94.5 39.5q57 0 96 -39.5t39 -96.5q0 -55 -39 -94.5t-96 -39.5z" />
    <glyph glyph-name="exclam" unicode="!" horiz-adv-x="619" 
d="M233 366l-38 1010h196l-39 -1010h-119zM291 -24q-36 0 -66.5 18t-49 48.5t-18.5 67.5q0 57 39.5 96.5t94.5 39.5q57 0 96.5 -39.5t39.5 -96.5q0 -55 -39.5 -94.5t-96.5 -39.5z" />
    <glyph glyph-name="exclamdown" unicode="&#xa1;" horiz-adv-x="619" 
d="M211 -54l38 1010h119l39 -1010h-196zM307 1076q-55 0 -94.5 39.5t-39.5 96.5q0 37 18.5 67.5t49 48.5t66.5 18q57 0 96.5 -39t39.5 -95q0 -57 -39.5 -96.5t-96.5 -39.5z" />
    <glyph glyph-name="question" unicode="?" horiz-adv-x="925" 
d="M355 366v243q0 61 27 95t76 62q44 27 89 63.5t75.5 84.5t30.5 108q0 87 -61 129.5t-162 42.5q-71 0 -122 -29t-81.5 -68.5t-40.5 -72.5l-145 62q2 16 19 46.5t48.5 66.5t79.5 69t113 54.5t147 21.5q117 0 204.5 -37.5t135.5 -105t48 -158.5q0 -84 -38 -147.5t-96.5 -112
t-119.5 -88.5q-44 -27 -58 -57.5t-14 -88.5v-183h-155zM434 -24q-55 0 -94.5 39.5t-39.5 94.5q0 57 39.5 96.5t94.5 39.5q56 0 95.5 -39.5t39.5 -96.5q0 -55 -39.5 -94.5t-95.5 -39.5z" />
    <glyph glyph-name="questiondown" unicode="&#xbf;" horiz-adv-x="925" 
d="M425 -24q-116 0 -203.5 37.5t-136 105.5t-48.5 158q0 84 38.5 147.5t97 112.5t119.5 89q44 27 58 57.5t14 87.5v183h154v-243q0 -60 -27 -94.5t-76 -62.5q-43 -26 -88.5 -62.5t-76 -84.5t-30.5 -109q0 -87 61 -129.5t162 -42.5q72 0 123 29t81.5 69t39.5 72l146 -61
q-3 -16 -20 -47t-48.5 -67t-79.5 -69t-112.5 -54.5t-147.5 -21.5zM439 1074q-56 0 -95.5 39.5t-39.5 96.5q0 56 39.5 95t95.5 39q55 0 94.5 -39t39.5 -95q0 -57 -39.5 -96.5t-94.5 -39.5z" />
    <glyph glyph-name="periodcentered" unicode="&#xb7;" horiz-adv-x="525" 
d="M260 295q-55 0 -94.5 39.5t-39.5 94.5q0 57 39.5 96.5t94.5 39.5q57 0 96 -39.5t39 -96.5q0 -55 -39 -94.5t-96 -39.5z" />
    <glyph glyph-name="bullet" unicode="&#x2022;" horiz-adv-x="1028" 
d="M495 793q63 0 113 -29.5t80 -80t30 -113.5q0 -61 -30 -111t-80 -79.5t-113 -29.5q-61 0 -111 29.5t-79.5 79.5t-29.5 111q0 62 29.5 112.5t79.5 80.5t111 30z" />
    <glyph glyph-name="asterisk" unicode="*" horiz-adv-x="842" 
d="M454 1163l193 64l31 -90l-201 -68l123 -166l-80 -57l-117 162l-121 -161l-81 56l130 166l-201 68l30 90l194 -64l1 203h98z" />
    <glyph glyph-name="numbersign" unicode="#" horiz-adv-x="1267" 
d="M550 1320h123l-349 -1320h-123zM928 1320h122l-349 -1320h-122zM259 942h876l-37 -120h-877zM155 500h876l-37 -120h-877z" />
    <glyph glyph-name="slash" unicode="/" horiz-adv-x="954" 
d="M710 1376h149l-659 -1568h-149z" />
    <glyph glyph-name="backslash" unicode="\" horiz-adv-x="954" 
d="M868 0h-150l-659 1376h150z" />
    <glyph glyph-name="periodcentered.loclCAT" horiz-adv-x="485" 
d="M237 333q-55 0 -94.5 39.5t-39.5 94.5q0 57 39.5 96.5t94.5 39.5q57 0 96 -39.5t39 -96.5q0 -55 -39 -94.5t-96 -39.5z" />
    <glyph glyph-name="hyphen" unicode="-" horiz-adv-x="768" 
d="M109 380v151h515v-151h-515z" />
    <glyph glyph-name="uni00AD" unicode="&#xad;" horiz-adv-x="768" 
d="M109 380v151h515v-151h-515z" />
    <glyph glyph-name="endash" unicode="&#x2013;" horiz-adv-x="872" 
d="M14 380v151h810v-151h-810z" />
    <glyph glyph-name="emdash" unicode="&#x2014;" horiz-adv-x="1640" 
d="M15 380v151h1575v-151h-1575z" />
    <glyph glyph-name="underscore" unicode="_" horiz-adv-x="818" 
d="M19 -158v112h773v-112h-773z" />
    <glyph glyph-name="parenleft" unicode="(" horiz-adv-x="610" 
d="M373 -406q-58 71 -120.5 201t-106 304t-43.5 376q0 156 26 298t68 262t90.5 212t93.5 149l112 -60q-50 -64 -104.5 -188.5t-92.5 -295.5t-38 -377q0 -193 36 -356t88 -281.5t99 -181.5z" />
    <glyph glyph-name="parenright" unicode=")" horiz-adv-x="610" 
d="M187 -406l-108 62q48 63 99.5 181.5t87.5 281.5t36 356q0 206 -38 377t-92.5 295.5t-104.5 188.5l112 60q45 -57 93.5 -149t90.5 -212t68 -262t26 -298q0 -202 -43.5 -376t-106 -304t-120.5 -201z" />
    <glyph glyph-name="braceleft" unicode="{" horiz-adv-x="701" 
d="M110 541q68 0 96 37t28 92v469q0 68 19 121.5t65 84.5t127 31h111v-136h-76q-52 0 -77 -24.5t-25 -79.5v-485q0 -67 -28.5 -113t-89.5 -59q62 -14 90 -59.5t28 -110.5v-485q0 -46 20.5 -75t81.5 -29h76v-136h-111q-81 0 -127 31t-65 84.5t-19 121.5v469q0 55 -28 92.5
t-96 37.5v121z" />
    <glyph glyph-name="braceright" unicode="}" horiz-adv-x="775" 
d="M169 -416v136h75q62 0 82 29t20 75v485q0 65 28.5 110.5t90.5 59.5q-61 13 -90 59t-29 113v485q0 55 -24.5 79.5t-77.5 24.5h-75v136h111q81 0 127 -31t65 -84.5t19 -121.5v-469q0 -55 27.5 -92t96.5 -37v-121q-69 0 -96.5 -37.5t-27.5 -92.5v-469q0 -68 -19 -121.5
t-65 -84.5t-127 -31h-111z" />
    <glyph glyph-name="bracketleft" unicode="[" horiz-adv-x="683" 
d="M110 -416v1792h428v-133h-284v-1526h284v-133h-428z" />
    <glyph glyph-name="bracketright" unicode="]" horiz-adv-x="683" 
d="M93 -416v133h284v1526h-284v133h428v-1792h-428z" />
    <glyph glyph-name="quotesinglbase" unicode="&#x201a;" horiz-adv-x="475" 
d="M243 251q61 0 104.5 -43t43.5 -116q0 -74 -30 -141t-79 -119t-106 -83l-65 67q30 14 65 40t63 59.5t38 71.5q-22 -11 -52 -11q-51 0 -88 39t-37 94q0 41 19 73t51.5 50.5t72.5 18.5z" />
    <glyph glyph-name="quotedblbase" unicode="&#x201e;" horiz-adv-x="856" 
d="M628 251q61 0 104.5 -43t43.5 -116q0 -74 -30 -141t-79 -119t-106 -83l-65 67q30 14 65 40t63 59.5t38 71.5q-22 -11 -52 -11q-51 0 -88 39t-37 94q0 41 19 73t51.5 50.5t72.5 18.5zM243 251q61 0 104.5 -43t43.5 -116q0 -74 -30 -141t-79 -119t-106 -83l-65 67
q30 14 65 40t63 59.5t38 71.5q-22 -11 -52 -11q-51 0 -88 39t-37 94q0 41 19 73t51.5 50.5t72.5 18.5z" />
    <glyph glyph-name="quotedblleft" unicode="&#x201c;" horiz-adv-x="917" 
d="M677 850q-66 0 -109.5 45.5t-43.5 130.5q0 78 30 138t75 102t91 65l53 -60q-25 -10 -56.5 -37.5t-55 -63t-25.5 -71.5q9 12 31 20t46 8q45 0 80.5 -32.5t35.5 -91.5q0 -70 -43.5 -111.5t-108.5 -41.5zM279 850q-66 0 -109.5 45.5t-43.5 130.5q0 78 30 138t75 102t91 65
l53 -60q-25 -10 -56.5 -37.5t-55 -63t-25.5 -71.5q9 12 31 20t46 8q45 0 80.5 -32.5t35.5 -91.5q0 -70 -43.5 -111.5t-108.5 -41.5z" />
    <glyph glyph-name="quotedblright" unicode="&#x201d;" horiz-adv-x="917" 
d="M587 823l-53 60q25 11 56.5 38t55 63t24.5 71q-8 -12 -30.5 -20t-46.5 -8q-45 0 -80.5 33t-35.5 91q0 71 43.5 112t109.5 41q65 0 109 -45.5t44 -130.5q0 -78 -30 -138.5t-75 -101.5t-91 -65zM189 823l-53 60q25 11 56.5 38t55 63t24.5 71q-8 -12 -30.5 -20t-46.5 -8
q-45 0 -80.5 33t-35.5 91q0 71 43.5 112t109.5 41q65 0 109 -45.5t44 -130.5q0 -78 -30 -138.5t-75 -101.5t-91 -65z" />
    <glyph glyph-name="quoteleft" unicode="&#x2018;" horiz-adv-x="451" 
d="M231 850q-66 0 -109.5 45.5t-43.5 130.5q0 78 30 138t75 102t91 65l53 -60q-25 -10 -56.5 -37.5t-55 -63t-25.5 -71.5q9 12 31 20t46 8q45 0 80.5 -32.5t35.5 -91.5q0 -70 -43.5 -111.5t-108.5 -41.5z" />
    <glyph glyph-name="quoteright" unicode="&#x2019;" horiz-adv-x="451" 
d="M150 831l-53 60q25 10 56.5 37.5t55 63t24.5 70.5q-8 -11 -30.5 -19.5t-46.5 -8.5q-45 0 -80.5 33t-35.5 92q0 70 43.5 111t109.5 41q65 0 109 -45.5t44 -130.5q0 -78 -30 -138t-75 -101.5t-91 -64.5z" />
    <glyph glyph-name="guillemotleft" unicode="&#xab;" horiz-adv-x="965" 
d="M449 141l-88 -71l-294 375l294 374l88 -69l-242 -305zM830 141l-89 -71l-293 375l293 374l89 -69l-242 -305z" />
    <glyph glyph-name="guillemotright" unicode="&#xbb;" horiz-adv-x="965" 
d="M551 70l-88 71l242 304l-242 305l88 69l294 -374zM171 70l-89 71l242 304l-242 305l89 69l293 -374z" />
    <glyph glyph-name="guilsinglleft" unicode="&#x2039;" horiz-adv-x="585" 
d="M449 141l-88 -71l-294 375l294 374l88 -69l-241 -305z" />
    <glyph glyph-name="guilsinglright" unicode="&#x203a;" horiz-adv-x="583" 
d="M171 70l-88 71l241 304l-241 305l88 69l294 -374z" />
    </font>
</defs>
</svg>
